ilCorSaRoNeRo - iTALiAN Torrent Search Engine RSS FEED il|CorSaRo|NeRo http://ilcorsaronero.info Sat, 25 Feb 2017 15:13:25 +0100 (c) 2017 ilCorSaRoNeRo - iTALiAN Torrent Search Engine Shameless (US) S07e08 [H264 - Ita Aac] WEBMux by NovaRip [Serie TV] [Seed (109)/Leech (47)] Shameless - Stagione 7
Episodio 8

Per maggiori informazioni:
www.tntvillage.scambioetico.org
www.imdb.com/title/tt1586680



Scheda:
Titolo originale: Shameless
Paese: USA
Anno: 2016
Genere: Commedia, Drammatico
Stagione: 7
Puntate: 12
Durata: 50-60 min

Cast:
William H. Macy: Frank Gallagher
Emmy Rossum: Fiona Gallagher
Justin Chatwin: Steve Wilton/Jimmy Lishman
Jeremy Allen White: Phillip "Lip" Gallagher
Cameron Monaghan: Ian Gallagher
Emma Kenney: Debbie Gallagher
Ethan Cutkosky: Carl Gallagher
Shanola Hampton: Veronica Fisher
Steve Howey: Kevin Ball
Joan Cusack: Sheila Jackson
Laura Slade Wiggins: Karen Jackson
Noel Fisher: Mickey Milkovich
Emma Greenwell: Mandy Milkovich
Zach McGowan: Jody Silverman
Jake McDorman: Mike Pratt
Emily Bergl: Sammi Slott
Isidora Goreshter: Svetlana Fisher

Trama:
La serie è ambientata nel South Side di Chicago. La serie segue le vicende della disastrata e povera famiglia Gallagher, composta dal padre alcolizzato/drogato Frank e dai figli Fiona, la più grande, che a 12 anni inizia a prendersi cura degli altri fratelli quali Philip o semplicemente "Lip", Ian, Debbie, Carl e Liam. La mamma di questi ragazzi, Monica, li abbandona a causa dell'insopportabile Frank e del bipolarismo che l'affligge.

Questo agglomerato di persone è molto distante dall'idea tradizionale di famiglia: Frank non riesce a comportarsi da padre, e passa la maggior parte del suo tempo all'Alibi, un bar gestito da Kevin Ball e sua moglie, Veronica Fisher, vicini di casa dei Gallagher. Arriva al punto di trasferirsi da Sheila Jackson, madre della fidanzata di suo figlio Lip, per comodità e maggior disponibilità economica, dato che percepisce una pensione di invalidità a causa della sua agorafobia, a causa della quale non uscirà di casa per 5 anni.

Fiona è quella che si crede sia la figlia maggiore, che sembra essersi sobbarcata l'enorme peso dell'intera famiglia.






]]>
http://ilcorsaronero.info/tor/124347/Shameless__US__S07e08__H264___Ita_Aac__WEBMux_by_NovaRip http://ilcorsaronero.info/tor/124347/Shameless__US__S07e08__H264___Ita_Aac__WEBMux_by_NovaRip Sat, 25 Feb 2017 15:08:45 +0100
David Brent Life on the Road (2016).H264.Italian.English.Ac3.5.1.sub.ita.eng.iCV-MIRCrew [BDRiP] [Seed (3)/Leech (50)]

[center]by www.icv-crew.org


NO FOUND ONLY ORIGINAL RELEASE



My release is always in double track audio italian and Original audio
for select it use VLC or dvd player home
not use wmp

David Brent Life on the Road (2016)







Director: Ricky Gervais
Lingua originale inglese
Paese di produzione England
Anno 2016
Commedia
durata 96 min.



Ricky Gervais, Doc Brown, Tom Basden, Tom Bennett, Andy Burrows, Steve Clarke, Michael Clarke, Stuart Wilkinson, Diane Morgan. 15 cert



Quando "The Office" è ormai solo un ricordo, il mediocre David Brent abbandona il lavoro per andare in tour con la sua band alla disperata ricerca del successo..........



A camera crew catches up with David Brent, the former star of the fictional British TV series The Office (2001), as he now fancies himself a rock star on the road.  







[spoiler]
General
Unique ID                                : 143479388342332838391561515686396994478 (0x6BF12002B1509D83FF2DA7DFD4FCA3AE)
Complete name                            : David Brent Life on the Road (2016).H264.ita.eng.sub.ita.eng.iCV-MIRCrew.mkv
Format                                   : Matroska
Format version                           : Version 2
File size                                : 1.46 GiB
Duration                                 : 1h 35mn
Overall bit rate                         : 2 181 Kbps
Movie name                               : VISIT www.icv-crew.org
Encoded date                             : UTC 2017-02-23 19:04:34
Writing application                      : Lavf54.63.100
Writing library                          : Lavf54.63.100
COPYRIGHT                                : robbyrs

Video
ID                                       : 1
Format                                   : AVC
Format/Info                              : Advanced Video Codec
Format profile                           : Main@L4.1
Format settings, CABAC                   : Yes
Format settings, ReFrames                : 2 frames
Codec ID                                 : V_MPEG4/ISO/AVC
Duration                                 : 1h 35mn
Bit rate                                 : 1 280 Kbps
Width                                    : 720 pixels
Height                                   : 384 pixels
Display aspect ratio                     : 1.854
Original display aspect ratio            : 1.853
Frame rate mode                          : Variable
Frame rate                               : 23.976 fps
Color space                              : YUV
Chroma subsampling                       : 4:2:0
Bit depth                                : 8 bits
Scan type                                : Progressive
Bits/(Pixel*Frame)                       : 0.193
Stream size                              : 852 MiB (57%)
Writing library                          : x264 core 130 r2273
Encoding settings                        : cabac=1 / ref=2 / deblock=1:0:0 / analyse=0x1:0x131 / me=hex / subme=7 / psy=1 / psy_rd=1.00:0.00 / mixed_ref=0 / me_range=16 / chroma_me=1 / trellis=1 / 8x8dct=0 / cqm=0 / deadzone=21,11 / fast_pskip=1 / chroma_qp_offset=-2 / threads=12 / lookahead_threads=2 / sliced_threads=0 / nr=0 / decimate=1 / interlaced=0 / bluray_compat=0 / constrained_intra=0 / bframes=3 / b_pyramid=0 / b_adapt=1 / b_bias=0 / direct=3 / weightb=1 / open_gop=0 / weightp=2 / keyint=230 / keyint_min=23 / scenecut=40 / intra_refresh=0 / rc_lookahead=40 / rc=2pass / mbtree=1 / bitrate=1280 / ratetol=1.0 / qcomp=0.60 / qpmin=10 / qpmax=69 / qpstep=4 / cplxblur=20.0 / qblur=0.5 / vbv_maxrate=24000 / vbv_bufsize=24000 / nal_hrd=none / ip_ratio=1.40 / aq=1:1.00
Language                                 : Italian
Default                                  : Yes
Forced                                   : No
DURATION                                 : 01:35:58.336000000
NUMBER_OF_FRAMES                         : 138062
NUMBER_OF_BYTES                          : 8231757905
_STATISTICS_WRITING_APP                  : mkvmerge v8.7.0 ('All of the above') 64bit
_STATISTICS_WRITING_DATE_UTC             : 2017-02-12 15:41:04
_STATISTICS_TAGS                         : BPS DURATION NUMBER_OF_FRAMES NUMBER_OF_BYTES

Audio #1
ID                                       : 2
Format                                   : AC-3
Format/Info                              : Audio Coding 3
Mode extension                           : CM (complete main)
Codec ID                                 : A_AC3
Duration                                 : 1h 35mn
Bit rate mode                            : Constant
Bit rate                                 : 448 Kbps
Channel(s)                               : 6 channels
Channel positions                        : Front: L C R, Side: L R, LFE
Sampling rate                            : 48.0 KHz
Bit depth                                : 16 bits
Compression mode                         : Lossy
Delay relative to video                  : 1mn 5s
Stream size                              : 308 MiB (21%)
Title                                    : AC3 ITA
Language                                 : Italian
Default                                  : Yes
Forced                                   : No
DURATION                                 : 01:35:58.400000000
NUMBER_OF_FRAMES                         : 179950
NUMBER_OF_BYTES                          : 322470400
_STATISTICS_WRITING_APP                  : mkvmerge v8.7.0 ('All of the above') 64bit
_STATISTICS_WRITING_DATE_UTC             : 2017-02-12 15:41:04
_STATISTICS_TAGS                         : BPS DURATION NUMBER_OF_FRAMES NUMBER_OF_BYTES

Audio #2
ID                                       : 3
Format                                   : AC-3
Format/Info                              : Audio Coding 3
Mode extension                           : CM (complete main)
Codec ID                                 : A_AC3
Duration                                 : 1h 35mn
Bit rate mode                            : Constant
Bit rate                                 : 448 Kbps
Channel(s)                               : 6 channels
Channel positions                        : Front: L C R, Side: L R, LFE
Sampling rate                            : 48.0 KHz
Bit depth                                : 16 bits
Compression mode                         : Lossy
Delay relative to video                  : 1mn 5s
Stream size                              : 308 MiB (21%)
Title                                    : AC3 ENG
Language                                 : English
Default                                  : No
Forced                                   : No
DURATION                                 : 01:35:58.368000000
NUMBER_OF_FRAMES                         : 179949
NUMBER_OF_BYTES                          : 460669440
_STATISTICS_WRITING_APP                  : mkvmerge v8.7.0 ('All of the above') 64bit
_STATISTICS_WRITING_DATE_UTC             : 2017-02-12 15:41:04
_STATISTICS_TAGS                         : BPS DURATION NUMBER_OF_FRAMES NUMBER_OF_BYTES

Text #1
ID                                       : 4
Format                                   : UTF-8
Codec ID                                 : S_TEXT/UTF8
Codec ID/Info                            : UTF-8 Plain Text
Title                                    : FORCED
Language                                 : Italian
Default                                  : Yes
Forced                                   : No
DURATION                                 : 01:33:57.513000000
NUMBER_OF_FRAMES                         : 254
NUMBER_OF_BYTES                          : 7917
_STATISTICS_WRITING_APP                  : mkvmerge v8.7.0 ('All of the above') 64bit
_STATISTICS_WRITING_DATE_UTC             : 2017-02-12 15:41:04
_STATISTICS_TAGS                         : BPS DURATION NUMBER_OF_FRAMES NUMBER_OF_BYTES

Text #2
ID                                       : 5
Format                                   : UTF-8
Codec ID                                 : S_TEXT/UTF8
Codec ID/Info                            : UTF-8 Plain Text
Title                                    : REGULAR
Language                                 : Italian
Default                                  : No
Forced                                   : No
DURATION                                 : 01:35:03.537000000
NUMBER_OF_FRAMES                         : 1714
NUMBER_OF_BYTES                          : 59187
_STATISTICS_WRITING_APP                  : mkvmerge v8.7.0 ('All of the above') 64bit
_STATISTICS_WRITING_DATE_UTC             : 2017-02-12 15:41:04
_STATISTICS_TAGS                         : BPS DURATION NUMBER_OF_FRAMES NUMBER_OF_BYTES

Text #3
ID                                       : 6
Format                                   : UTF-8
Codec ID                                 : S_TEXT/UTF8
Codec ID/Info                            : UTF-8 Plain Text
Title                                    : REGULAR
Language                                 : English
Default                                  : No
Forced                                   : No
DURATION                                 : 01:35:06.909000000
NUMBER_OF_FRAMES                         : 1899
NUMBER_OF_BYTES                          : 73800
_STATISTICS_WRITING_APP                  : mkvmerge v8.7.0 ('All of the above') 64bit
_STATISTICS_WRITING_DATE_UTC             : 2017-02-12 15:41:04
_STATISTICS_TAGS                         : BPS DURATION NUMBER_OF_FRAMES NUMBER_OF_BYTES

Menu
00:00:00.000                             : :Chapter 01
00:02:52.714                             : :Chapter 02
00:08:57.954                             : :Chapter 03
00:14:29.326                             : :Chapter 04
00:20:17.257                             : :Chapter 05
00:27:30.940                             : :Chapter 06
00:33:32.343                             : :Chapter 07
00:40:37.977                             : :Chapter 08
00:45:20.592                             : :Chapter 09
00:50:34.990                             : :Chapter 10
00:56:19.793                             : :Chapter 11
01:03:16.542                             : :Chapter 12
01:13:17.976                             : :Chapter 13
01:20:57.769                             : :Chapter 14
01:27:25.531                             : :Chapter 15
01:31:33.863                             : :Chapter 16



[/spoiler]

[/center]

]]>
http://ilcorsaronero.info/tor/124346/David_Brent_Life_on_the_Road__2016__H264_Italian_English_Ac3_5_1_sub_ita_eng_iCV_MIRCrew http://ilcorsaronero.info/tor/124346/David_Brent_Life_on_the_Road__2016__H264_Italian_English_Ac3_5_1_sub_ita_eng_iCV_MIRCrew Sat, 25 Feb 2017 13:32:33 +0100
Nick Mano Fredda (1967).H264.Italian.English.Ac3.sub.ita.eng.iCV-MIRCrew [BDRiP] [Seed (3)/Leech (42)]

[center]


NO FOUND ONLY ORIGINAL RELEASE



My release is always in double track audio italian and Original audio
for select it use VLC or dvd player home
not use wmp

Nick Mano Fredda - Cool Hand Luke (1967)







Titolo originale Cool Hand Luke
Paese di produzione USA
Anno 1967
Durata 126 min
Genere drammatico
Regia Stuart Rosenberg
Soggetto Donn Pearce
Sceneggiatura Donn Pearce, Frank R. Pierson
Produttore Warner Bros
Distribuzione (Italia) Warner Bros
Fotografia Conrad Hall
Montaggio Sam O'Steen
Musiche Lalo Schifrin
Scenografia Cary Odell, Fred Price




   Paul Newman: Nick
   George Kennedy: Dragline
   J.D. Cannon: Society Red
   Lou Antonio: Koko
   Robert Drivas: Loudmouth Steve
   Strother Martin: capitano
   Jo Van Fleet: Arletta
   Clifton James: Carr
   Morgan Woodward: boss Godfrey
   Luke Askew: boss Paul
   Marc Cavell: Rabbitt
   Richard Davalos: Blind Dick
   Robert Donner: boss Shorty
   Warren Finnerty: Tattoo
   Dennis Hopper: Babalugats
   John McLiam: boss Keen
   Wayne Rogers: giocatore
   Harry Dean Stanton: vagabondo
   Charles Tyner: boss Higgins
   Ralph Waite: Alibi
   Anthony Zerbe: Dog Boy
   Buck Kartalian: Dynamite
   Joy Harmon: The Girl




Condannato a due anni di reclusione (e annessi lavori forzati) per aver distrutto da ubriaco una serie di parchimetri, il brillante Nick diviene un simbolo di ribellione e di antiautoritarismo, amato dai compagni e odiato dai guardiani. Sconfitto dalla vita (la donna che amava l'ha lasciato per un uomo ricco), devastato dai lutti familiari (durante la prigionia la madre muore di cancro) e con niente da perdere, Nick tenta più volte la fuga................



Luke Jackson is a cool, gutsy prisoner in a Southern chain gang, who, while refusing to buckle under to authority, keeps escaping and being recaptured. The prisoners admire Luke because, as Dragline explains it, "You're an original, that's what you are!" Nevertheless, the camp staff actively works to crush Luke until he finally breaks








[spoiler]
General
Unique ID                                : 197680896988351545197089239352295599858 (0x94B7F4B57D7898486ECA67D5B724AEF2)
Complete name                            : Nick Mano Fredda - Cool Hand Luke (1967).H264.ita.eng.sub.ita.eng.iCV-MIRCrew.mkv
Format                                   : Matroska
Format version                           : Version 2
File size                                : 1.49 GiB
Duration                                 : 2h 6mn
Overall bit rate                         : 1 685 Kbps
Movie name                               : VISIT www.icv-crew.org
Encoded date                             : UTC 2017-01-29 19:04:30
Writing application                      : Lavf54.63.100
Writing library                          : Lavf54.63.100
COPYRIGHT                                : robbyrs

Video
ID                                       : 1
Format                                   : AVC
Format/Info                              : Advanced Video Codec
Format profile                           : Main@L4.1
Format settings, CABAC                   : Yes
Format settings, ReFrames                : 2 frames
Codec ID                                 : V_MPEG4/ISO/AVC
Duration                                 : 2h 6mn
Bit rate                                 : 1 280 Kbps
Width                                    : 720 pixels
Height                                   : 298 pixels
Display aspect ratio                     : 2.40:1
Frame rate mode                          : Variable
Frame rate                               : 23.976 fps
Color space                              : YUV
Chroma subsampling                       : 4:2:0
Bit depth                                : 8 bits
Scan type                                : Progressive
Bits/(Pixel*Frame)                       : 0.249
Stream size                              : 1.12 GiB (75%)
Writing library                          : x264 core 130 r2273
Encoding settings                        : cabac=1 / ref=2 / deblock=1:0:0 / analyse=0x1:0x131 / me=hex / subme=7 / psy=1 / psy_rd=1.00:0.00 / mixed_ref=0 / me_range=16 / chroma_me=1 / trellis=1 / 8x8dct=0 / cqm=0 / deadzone=21,11 / fast_pskip=1 / chroma_qp_offset=-2 / threads=12 / lookahead_threads=2 / sliced_threads=0 / nr=0 / decimate=1 / interlaced=0 / bluray_compat=0 / constrained_intra=0 / bframes=3 / b_pyramid=0 / b_adapt=1 / b_bias=0 / direct=3 / weightb=1 / open_gop=0 / weightp=2 / keyint=230 / keyint_min=23 / scenecut=40 / intra_refresh=0 / rc_lookahead=40 / rc=2pass / mbtree=1 / bitrate=1280 / ratetol=1.0 / qcomp=0.60 / qpmin=10 / qpmax=69 / qpstep=4 / cplxblur=20.0 / qblur=0.5 / vbv_maxrate=24000 / vbv_bufsize=24000 / nal_hrd=none / ip_ratio=1.40 / aq=1:1.00
Language                                 : Italian
Default                                  : Yes
Forced                                   : No

Audio #1
ID                                       : 2
Format                                   : AC-3
Format/Info                              : Audio Coding 3
Mode extension                           : CM (complete main)
Codec ID                                 : A_AC3
Duration                                 : 2h 6mn
Bit rate mode                            : Constant
Bit rate                                 : 192 Kbps
Channel(s)                               : 1 channel
Channel positions                        : Front: C
Sampling rate                            : 48.0 KHz
Bit depth                                : 16 bits
Compression mode                         : Lossy
Delay relative to video                  : 1mn 5s
Stream size                              : 174 MiB (11%)
Title                                    : Ita Ac3 1.0
Language                                 : Italian
Default                                  : Yes
Forced                                   : No

Audio #2
ID                                       : 3
Format                                   : AC-3
Format/Info                              : Audio Coding 3
Mode extension                           : CM (complete main)
Codec ID                                 : A_AC3
Duration                                 : 2h 6mn
Bit rate mode                            : Constant
Bit rate                                 : 192 Kbps
Channel(s)                               : 1 channel
Channel positions                        : Front: C
Sampling rate                            : 48.0 KHz
Bit depth                                : 16 bits
Compression mode                         : Lossy
Delay relative to video                  : 1mn 5s
Stream size                              : 174 MiB (11%)
Title                                    : Eng Ac3 1.0
Language                                 : English
Default                                  : No
Forced                                   : No

Text #1
ID                                       : 4
Format                                   : VobSub
Codec ID                                 : S_VOBSUB
Codec ID/Info                            : The same subtitle format used on DVDs
Title                                    : Sub Ita Forced
Language                                 : Italian
Default                                  : Yes
Forced                                   : No

Text #2
ID                                       : 5
Format                                   : VobSub
Codec ID                                 : S_VOBSUB
Codec ID/Info                            : The same subtitle format used on DVDs
Title                                    : Sub Ita
Language                                 : Italian
Default                                  : No
Forced                                   : No

Text #3
ID                                       : 6
Format                                   : VobSub
Codec ID                                 : S_VOBSUB
Codec ID/Info                            : The same subtitle format used on DVDs
Title                                    : Sub Eng
Language                                 : English
Default                                  : No
Forced                                   : No

Menu
00:00:00.000                             : :Meeting the Boss
00:03:54.234                             : :Yes, Cap'n
00:07:27.947                             : :The Rules
00:12:30.249                             : :A Hard Day's Work
00:19:47.186                             : :One in the Box
00:22:39.024                             : :The Lady Washes Her Car
00:26:38.931                             : :On Dragline's Bad Side
00:29:15.253                             : :Not Staying Down
00:34:07.212                             : :A Real Cool Hand
00:37:26.077                             : :Arletta Lets Go
00:46:47.972                             : :A Long Road
00:52:25.642                             : :50 Eggs on a Bet
00:55:26.323                             : :In Training
00:57:08.091                             : :The Big Event
01:04:05.508                             : :Snake in the Grass
01:04:54.390                             : :Standing in the Rain
01:06:17.473                             : :Requiem on the Banjo
01:10:04.200                             : :Into the Box
01:14:01.437                             : :Escape
01:21:43.565                             : :"Failure to Communicate"
01:25:32.627                             : :Shaking the Bush
01:27:42.591                             : :Chili Powder, Etc.
01:31:41.830                             : rag's Special Delivery
01:34:50.184                             : :"Stop Feedin' Off Me!"
01:38:05.880                             : :Another Night in the Box
01:39:32.800                             : :Boss Kean's Ditch
01:45:23.984                             : :Out of the Depths
01:48:09.650                             : :"Where Are You Now?"
01:50:24.117                             : :A Beaten Man...
01:52:30.410                             : :...Beats It Out of There
01:53:46.153                             : :Nothing Planned
01:54:54.012                             : :Enough World-Shakin'
01:56:47.667                             : :A Hard Case
01:59:43.510                             : :Failure to Communicate
02:02:29.175                             : :"He's Ours"
02:04:24.624                             : :That Ol' Luke Smile
02:05:31.524                             : :Cast List



[/spoiler]

[/center]

]]>
http://ilcorsaronero.info/tor/124345/Nick_Mano_Fredda___1967__H264_Italian_English_Ac3_sub_ita_eng_iCV_MIRCrew http://ilcorsaronero.info/tor/124345/Nick_Mano_Fredda___1967__H264_Italian_English_Ac3_sub_ita_eng_iCV_MIRCrew Sat, 25 Feb 2017 13:08:59 +0100
The Universe S01E07 BDRip 1080p Ita Eng x265-NAHOM [BDRiP] [Seed (3)/Leech (35)]









Titolo originale The Universe
Paese Stati Uniti d'America
Anno 2007 - 2015
Genere documentario, divulgazione scientifica
Stagioni 9
Puntate 88
Durata 45 min
Rete originale History
Rete italiana Focus





Dall’alba dei tempi l’uomo contempla la volta celeste alla ricerca di risposte per capire i segreti del suo passato e avere le chiavi per interpretare il futuro. Sono passati più di 50 anni da quando per la prima volta l’uomo si è avventurato nel cosmo, ma soltanto in tempi recenti l’universo ha cominciato a rivelare i suoi segreti. La conoscenza delle antiche civiltà si arricchiscono oggi con le incredibili scoperte rese possibili dalla tecnologia di ultima generazione, dai potenti telescopi alle sonde spaziali che giungono ai confini dell’universo conosciuto ai robot che sperimentano la vita dell’uomo su altri pianeti.

La storia dell'universo (The Universe) è una serie televisiva americana prodotta dalla compagnia Flight 33 Productions per il canale satellitare History ed è stata trasmessa su Focus.












[ Info sul file ]

Nome: The Universe S01E07 BDRip 1080p Ita Eng x265-NAHOM.mkv
Data: Sat, 25 Feb 2017 16:26:21 +0100
Dimensione: 742,028,743 bytes (707.653754 MiB)

[ Magic ]

Tipo file: data

[ Info generiche ]

Durata: 00:44:06 (2645.524 s)
Contenitore: matroska
Production date: Sat, 25 Feb 2017 16:25:51 +0100
Totale tracce: 3
Traccia n. 1: video (V_MPEGH/ISO/HEVC) {und}
Traccia n. 2: audio (A_AAC) {eng}
Traccia n. 3: audio (A_AAC) {ita}
Muxing library: libebml v1.3.4 + libmatroska v1.4.5
Writing application: mkvmerge v9.9.0 ('Pick Up') 32bit

[ Traccia video ]

Codec ID: V_MPEGH/ISO/HEVC
Risoluzione: 1920 x 1080
Frame aspect ratio: 16:9 = 1.777778
Pixel aspect ratio: 1:1 = 1
Display aspect ratio: 16:9 = 1.777778
Framerate: 23.976024 fps
Dimensione stream: 676,441,031 bytes (645.104438 MiB)
Durata: 00:44:06 (2645.517854 s)
Bitrate (bs): 2045.545918 kbps
Qf: 0.041144

[ Traccia audio nr. 1 ]

Codec ID: A_AAC
Freq. campionamento: 48000 Hz
Canali: 2
Dimensione stream: 43,547,794 bytes (41.530413 MiB)
Tipo di bitstream (bs): AAC LC (Low Complexity)
Frames (bs): 124,008
Durata: 00:44:06 (2645.504 s)
Chunk-aligned (bs): Sì
Bitrate (bs): 131.688462 kbps VBR
Freq. campionamento (bs): 48000 Hz
Modo (bs): 2: front-left, front-right

[ Traccia audio nr. 2 ]

Codec ID: A_AAC
Freq. campionamento: 44100 Hz
Canali: 2
Dimensione stream: 21,075,590 bytes (20.099249 MiB)
Tipo di bitstream (bs): AAC LC (Low Complexity)
Frames (bs): 113,463
Durata: 00:43:55 (2634.605714 s)
Chunk-aligned (bs): Sì
Bitrate (bs): 63.996187 kbps VBR
Freq. campionamento (bs): 44100 Hz
Modo (bs): 2: front-left, front-right

Rapporto creato da AVInaptic (18-12-2011) in data 25-02-2017 16:54:04

]]>
http://ilcorsaronero.info/tor/124344/The_Universe_S01E07_BDRip_1080p_Ita_Eng_x265_NAHOM http://ilcorsaronero.info/tor/124344/The_Universe_S01E07_BDRip_1080p_Ita_Eng_x265_NAHOM Sat, 25 Feb 2017 13:08:22 +0100
Oasis.Supersonic.2016.iTALiAN.AC3.DVDRip.XviD.Matrix [BDRiP] [Seed (17)/Leech (121)]

DATA USCITA: 07 novembre 2016
GENERE: Documentario, Musicale
ANNO: 2016
REGIA: Mat Whitecross
MONTAGGIO: Paul Monaghan
PRODUZIONE: Mint Pictures
DISTRIBUZIONE: Lucky Red
PAESE: Gran Bretagna
DURATA: 122 Min

.:: TRAMA ::.

Nell'agosto del 1996, gli Oasis, una band indie proveniente dalle case popolari di Manchester, furono protagonisti di qualcosa mai visto prima. I loro concerti a Knebworth con un pubblico di 250.000 persone - e altri 2 milioni e mezzo di persone alla ricerca di biglietti - furono gli eventi più seguiti di quel periodo. Per tutti coloro che sono cresciuti negli anni novanta, c'era una sola band che contava. Al culmine del loro successo, infatti, gli Oasis non avevano concorrenti. Questo film parla di loro, di quella band che ha cambiato il suono di una generazione, scrivendo a tutti gli effetti una pagina memorabile di storia della musica.







.:: AVINAPTIC ::.

[spoiler]

[ Info sul file ]

Nome: Oasis.Supersonic.2016.iTALiAN.AC3.DVDRip.XviD.Matrix.avi
Data: Sat, 25 Feb 2017 12:50:29 +0100
Dimensione: 1,450,071,753 bytes (1382.896188 MiB)

[ Magic ]

Tipo file: data

[ Info generiche ]

Durata: 01:57:07 (7026.96 s)
Contenitore: matroska
Production date: Fri, 24 Feb 2017 09:27:51 +0100
Totale tracce: 3
Traccia n. 1: video (V_MS/VFW/FOURCC) {und}
Traccia n. 2: audio (A_AC3) {und}
Traccia n. 3: subtitle (S_TEXT/UTF {und}
Muxing library: libebml v1.3.4 + libmatroska v1.4.5
Writing application: mkvmerge v9.6.0 ('Slave To Your Mind') 32bit

[ Dati rilevanti ]

Risoluzione: 688 x 384
Larghezza: multipla di 16
Altezza: multipla di 32
DRF medio: 5.393834
Deviazione standard: 2.754045
Media pesata dev. std.: 2.479851

[ Traccia video ]

Codec ID: V_MS/VFW/FOURCC
Risoluzione: 688 x 384
Frame aspect ratio: 43:24 = 1.791667 (~16:9)
Pixel aspect ratio: 1:1 = 1
Display aspect ratio: 43:24 = 1.791667 (~16:9)
Framerate: 25 fps
Dimensione stream: 1,111,260,194 bytes (1059.780306 MiB)
Durata: 01:57:07 (7026.96 s)
Bitrate (bs): 1265.139058 kbps
Qf: 0.191548

[ Traccia audio ]

Codec ID: A_AC3
Freq. campionamento: 48000 Hz
Canali: 6
Dimensione stream: 337,293,312 bytes (321.667969 MiB)
Tipo di bitstream (bs): AC3
Frames (bs): 219,592
Durata: 01:57:07 (7026.944 s)
Chunk-aligned (bs): Sì
Bitrate (bs): 384 kbps CBR
Freq. campionamento (bs): 48000 Hz
Modo (bs): 3 front, 2 rear, 1 LFE

[ Bitstream video ]

Tipo di bitstream: MPEG-4 Part 2
User data: DivX503b1393p
User data: XviD0047
Packed bitstream: Sì
QPel: No
GMC: No
Interlacciamento: No
Aspect ratio: Square pixels
Quant type: MPEG
Totale frames: 175,674
Drop/delay frames: 0
Frames corrotti: 0

I-VOPs:  3274 (  1.864 %)
P-VOPs: 92084 ( 52.418 %) ##########
B-VOPs: 80315 ( 45.718 %) #########
S-VOPs:     0 (  0.000 %)
N-VOPs:     1 (  0.001 %)

Max B-VOPs consecutivi: 1

[ Analisi DRF ]

DRF nedio: 5.393834
deviazione standard: 2.754045
max DRF: 28

DRF=1:  2953 (  1.681 %)
DRF=2: 16532 (  9.411 %) ##
DRF=3: 24580 ( 13.992 %) ###
DRF=4: 36205 ( 20.609 %) ####
DRF=5: 24617 ( 14.013 %) ###
DRF=6: 18552 ( 10.561 %) ##
DRF=7: 20675 ( 11.769 %) ##
DRF=8:  9523 (  5.421 %) #
DRF=9:  6597 (  3.755 %) #
DRF>9: 15439 (  8.788 %) ##

I-VOPs DRF medio: 4.958155
I-VOPs deviazione std.: 2.327708
I-VOPs max DRF: 19

P-VOPs DRF medio: 4.31632
P-VOPs deviazione std.: 2.177897
P-VOPs max DRF: 19

B-VOPs DRF medio: 6.647002
B-VOPs deviazione std.: 2.832253
B-VOPs max DRF: 28

[ Conformità al profilo ]

Profilo selezionato: MTK PAL 6000
Risoluzione: Ok
Framerate: Ok
Min riempimento buffer: 80%

Rapporto creato da AVInaptic (18-12-2011) in data 25-02-2017 16:07:37

[/spoiler]

[size=12pt]iCV-CreW[/size]]]>
http://ilcorsaronero.info/tor/124343/Oasis_Supersonic_2016_iTALiAN_AC3_DVDRip_XviD_Matrix http://ilcorsaronero.info/tor/124343/Oasis_Supersonic_2016_iTALiAN_AC3_DVDRip_XviD_Matrix Sat, 25 Feb 2017 12:30:41 +0100
Masterminds - I geni della truffa (2016).H264.Italian.English.Ac3.5.1.sub.ita.NUita.iCV-MIRCrew [BDRiP] [Seed (16)/Leech (259)]
[center]by www.icv-crew.org


NO FOUND ONLY ORIGINAL RELEASE



My release is always in double track audio italian and Original audio
for select it use VLC or dvd player home
not use wmp

Masterminds - I geni della truffa (2016)






   DATA USCITA: 09 novembre 2016
   GENERE: Commedia
   ANNO: 2016
   REGIA: Jared Hess
   SCENEGGIATURA: Danny McBride, Jody Hill, Emily Spivey, Chris Bowman, Hubbel Palmer
   FOTOGRAFIA: Erik Wilson
   MONTAGGIO: Keith Brachmann, David Rennie
   MUSICHE: Geoff Zanelli
   PRODUZIONE: Michaels-Goldwyn
   DISTRIBUZIONE: Lucky Red
   PAESE: USA
   DURATA: 94 Min



Zach Galifianakis, Kristen Wiig, Owen Wilson, Jason Sudeikis, Ken Marino, Mary Elizabeth Ellis, Leslie Jones, Devin Ratray



David Ghantt è un uomo semplice, imprigionato in una vita monotona. Giorno dopo giorno guida un furgone blindato trasportando milioni di dollari che non sono suoi. La sua unica distrazione è la cotta che ha per la collega Kelly Campbell, che lo spingerà ad osare oltre ogni limite. .....................



A guard at an armored car company in the Southern U.S. organizes one of the biggest bank heists in American history. Based on the October 1997 Loomis Fargo robbery.  ...  








[spoiler]
General
Unique ID                                : 307537600739114696400073054548507914800 (0xE75D9661BCA559E6D8C03C37C64A7230)
Complete name                            : Masterminds I geni della truffa (2016).ita.eng.sub.ita.eng.iCV-MIRCrew.mkv
Format                                   : Matroska
Format version                           : Version 2
File size                                : 1.44 GiB
Duration                                 : 1h 34mn
Overall bit rate                         : 2 179 Kbps
Movie name                               : VISIT www.icv-crew.org
Encoded date                             : UTC 2017-02-23 22:53:47
Writing application                      : Lavf54.63.100
Writing library                          : Lavf54.63.100
COPYRIGHT                                : robbyrs

Video
ID                                       : 1
Format                                   : AVC
Format/Info                              : Advanced Video Codec
Format profile                           : Main@L4.1
Format settings, CABAC                   : Yes
Format settings, ReFrames                : 2 frames
Codec ID                                 : V_MPEG4/ISO/AVC
Duration                                 : 1h 34mn
Bit rate                                 : 1 280 Kbps
Width                                    : 720 pixels
Height                                   : 404 pixels
Display aspect ratio                     : 16:9
Frame rate mode                          : Variable
Frame rate                               : 23.976 fps
Color space                              : YUV
Chroma subsampling                       : 4:2:0
Bit depth                                : 8 bits
Scan type                                : Progressive
Bits/(Pixel*Frame)                       : 0.184
Stream size                              : 840 MiB (57%)
Writing library                          : x264 core 130 r2273
Encoding settings                        : cabac=1 / ref=2 / deblock=1:0:0 / analyse=0x1:0x131 / me=hex / subme=7 / psy=1 / psy_rd=1.00:0.00 / mixed_ref=0 / me_range=16 / chroma_me=1 / trellis=1 / 8x8dct=0 / cqm=0 / deadzone=21,11 / fast_pskip=1 / chroma_qp_offset=-2 / threads=12 / lookahead_threads=2 / sliced_threads=0 / nr=0 / decimate=1 / interlaced=0 / bluray_compat=0 / constrained_intra=0 / bframes=3 / b_pyramid=0 / b_adapt=1 / b_bias=0 / direct=3 / weightb=1 / open_gop=0 / weightp=2 / keyint=230 / keyint_min=23 / scenecut=40 / intra_refresh=0 / rc_lookahead=40 / rc=2pass / mbtree=1 / bitrate=1280 / ratetol=1.0 / qcomp=0.60 / qpmin=10 / qpmax=69 / qpstep=4 / cplxblur=20.0 / qblur=0.5 / vbv_maxrate=24000 / vbv_bufsize=24000 / nal_hrd=none / ip_ratio=1.40 / aq=1:1.00
Language                                 : Italian
Default                                  : Yes
Forced                                   : No
DURATION                                 : 01:34:38.673000000
NUMBER_OF_FRAMES                         : 136152
NUMBER_OF_BYTES                          : 7802363065
_STATISTICS_WRITING_APP                  : mkvmerge v8.7.0 ('All of the above') 64bit
_STATISTICS_WRITING_DATE_UTC             : 2017-02-16 16:09:56
_STATISTICS_TAGS                         : BPS DURATION NUMBER_OF_FRAMES NUMBER_OF_BYTES

Audio #1
ID                                       : 2
Format                                   : AC-3
Format/Info                              : Audio Coding 3
Mode extension                           : CM (complete main)
Codec ID                                 : A_AC3
Duration                                 : 1h 34mn
Bit rate mode                            : Constant
Bit rate                                 : 448 Kbps
Channel(s)                               : 6 channels
Channel positions                        : Front: L C R, Side: L R, LFE
Sampling rate                            : 48.0 KHz
Bit depth                                : 16 bits
Compression mode                         : Lossy
Delay relative to video                  : 1mn 5s
Stream size                              : 304 MiB (21%)
Title                                    : AC3 ITA
Language                                 : Italian
Default                                  : No
Forced                                   : No
DURATION                                 : 01:34:37.728000000
NUMBER_OF_FRAMES                         : 177429
NUMBER_OF_BYTES                          : 454218240
_STATISTICS_WRITING_APP                  : mkvmerge v8.7.0 ('All of the above') 64bit
_STATISTICS_WRITING_DATE_UTC             : 2017-02-16 16:09:56
_STATISTICS_TAGS                         : BPS DURATION NUMBER_OF_FRAMES NUMBER_OF_BYTES

Audio #2
ID                                       : 3
Format                                   : AC-3
Format/Info                              : Audio Coding 3
Mode extension                           : CM (complete main)
Codec ID                                 : A_AC3
Duration                                 : 1h 34mn
Bit rate mode                            : Constant
Bit rate                                 : 448 Kbps
Channel(s)                               : 6 channels
Channel positions                        : Front: L C R, Side: L R, LFE
Sampling rate                            : 48.0 KHz
Bit depth                                : 16 bits
Compression mode                         : Lossy
Delay relative to video                  : 1mn 5s
Stream size                              : 304 MiB (21%)
Title                                    : AC3 ENG
Language                                 : English
Default                                  : No
Forced                                   : No
DURATION                                 : 01:34:43.520000000
NUMBER_OF_FRAMES                         : 177610
NUMBER_OF_BYTES                          : 454681600
_STATISTICS_WRITING_APP                  : mkvmerge v8.7.0 ('All of the above') 64bit
_STATISTICS_WRITING_DATE_UTC             : 2017-02-16 16:09:56
_STATISTICS_TAGS                         : BPS DURATION NUMBER_OF_FRAMES NUMBER_OF_BYTES

Text #1
ID                                       : 4
Format                                   : UTF-8
Codec ID                                 : S_TEXT/UTF8
Codec ID/Info                            : UTF-8 Plain Text
Title                                    : REGULAR
Language                                 : Italian
Default                                  : No
Forced                                   : No
DURATION                                 : 01:25:54.316000000
NUMBER_OF_FRAMES                         : 979
NUMBER_OF_BYTES                          : 40649
_STATISTICS_WRITING_APP                  : mkvmerge v8.7.0 ('All of the above') 64bit
_STATISTICS_WRITING_DATE_UTC             : 2017-02-16 16:09:56
_STATISTICS_TAGS                         : BPS DURATION NUMBER_OF_FRAMES NUMBER_OF_BYTES

Text #2
ID                                       : 5
Format                                   : UTF-8
Codec ID                                 : S_TEXT/UTF8
Codec ID/Info                            : UTF-8 Plain Text
Title                                    : NON UDENTI
Language                                 : Italian
Default                                  : No
Forced                                   : No
DURATION                                 : 01:25:54.316000000
NUMBER_OF_FRAMES                         : 1036
NUMBER_OF_BYTES                          : 42842
_STATISTICS_WRITING_APP                  : mkvmerge v8.7.0 ('All of the above') 64bit
_STATISTICS_WRITING_DATE_UTC             : 2017-02-16 16:09:56
_STATISTICS_TAGS                         : BPS DURATION NUMBER_OF_FRAMES NUMBER_OF_BYTES

Menu
00:00:00.000                             : :00:00:00.000
00:07:05.342                             : :00:07:05.342
00:14:28.201                             : :00:14:28.201
00:20:13.838                             : :00:20:13.838
00:29:27.099                             : :00:29:27.099
00:39:02.590                             : :00:39:02.590
00:50:56.804                             : :00:50:56.804
00:59:52.756                             : :00:59:52.756
01:08:53.129                             : :01:08:53.129
01:16:19.950                             : :01:16:19.950
01:23:27.706                             : :01:23:27.706



[/spoiler]

[/center]

]]>
http://ilcorsaronero.info/tor/124342/Masterminds____I_geni_della_truffa__2016__H264_Italian_English_Ac3_5_1_sub_ita_NUita_iCV_MIRCrew http://ilcorsaronero.info/tor/124342/Masterminds____I_geni_della_truffa__2016__H264_Italian_English_Ac3_5_1_sub_ita_NUita_iCV_MIRCrew Sat, 25 Feb 2017 12:27:54 +0100
De Andre - LUltimo Concerto (2006) [DVD9 PAL] [DVD] [Seed (1)/Leech (58)]

# Number Disc: 1
# Year Production: 1998
# Year out: 2006
# Durata: 180 min
# Format video: Fullscreen (4:3) PAL
# Media: DVD
# Color: Colore
# Compilation: No
# Concerto: Sì




.: Tracklist :.

 
Fabrizio De André (February 18, 1940 - January 11, 1999) was an Italian singer-songwriter. In his works he often told stories of marginalized and rebellious people, prostitutes and knaves. In Italy he is considered as a poet because of the quality of his lyrics.

Integral Concert recorded to Brancaccio Teather of Rome the 13 -14 Februaryy 1998


Artists:

   * Fabrizio De Andrè
   * Cristiano De Andrè   (guest)
         o Chitarra
         o Archi
         o Voce
   * Ellade Bandini   (guest)
         o Batteria
   * Stefano Cerri   (guest)
         o Basso
   * Mario Arcari   (guest)
         o Corni
   * Rosario Iermano   (guest)
         o Percussioni
   * Mark Harris   (guest)
         o Tastiere
   * Michele Ascolese   (guest)
         o Chitarra
   * Giorgio Cordini   (guest)
         o Chitarra
   * Luvi De Andrè   (guest)
         o Cori
   * Laura De Luca   (guest)
         o Cori
         o Flauto
   * Danila Satragno   (guest)
         o Cori
         o Fisarmonica
         o Tastiere

Crew

   * Mimma Nocelli - Regista
   * Pepi Morgia - Regista
   * Cesare Pierleoni - Montatore
   * Pepi Morgia - Disegno Luci
   * Giancarlo Pierozzi - Ingegnere Del Suono
   * Amek Ferrari - Ingegnere Del Suono
   * Mark Harris - Direttore Musicale

Audio

   * Italian - Dolby Digital 5.1
Format PAL 4:3



TrackList

  1. Creuza De Ma
  2. Jamin
  3. Sidun
  4. Princesa
  5. Khorakhanè
  6. Anime Salve
  7. Dolcenera
  8. Le Acciughe Fanno Il Pallone
  9. Disamistade
 10. A Cumba
 11. Ho Visto Nina Volare
 12. Smisurata Preghiera
 13. Nel Bene E Nel Male
 14. Invincibili
 15. L'Infanzia Di Maria
 16. Il Ritorno Di Giuseppe
 17. Il Sogno Di Maria
 18. Tre Madri
 19. Il Testamento Di Tito
 20. La Città Vecchia
 21. Bocca Di Rosa
 22. Amico Fragile
 23. Fiume Sand Creek
 24. Il Pescatore
 25. Via Del Campo
 26. Geordie
 27. Volta La Carta

Features

   * Accesso Diretto alle Scene
   * Menù Interattivi

Extra

   * Fabrizio: Parlando di "Crueza de Mà" e " Anime Salve"
   * Backstage: Fabrizio, Cristiano, Luvi
   * La Band



.: Other Files :.

log+cue+m3u+cover


]]>
http://ilcorsaronero.info/tor/124341/De_Andre___LUltimo_Concerto__2006___DVD9_PAL_ http://ilcorsaronero.info/tor/124341/De_Andre___LUltimo_Concerto__2006___DVD9_PAL_ Sat, 25 Feb 2017 12:04:52 +0100
Backtrack (2015).H264.Italian.English.Ac3.5.1.sub.ita.eng.iCV-MIRCrew [BDRiP] [Seed (54)/Leech (365)]

[center]by www.icv-crew.org


NO FOUND ONLY ORIGINAL RELEASE



My release is always in double track audio italian and Original audio
for select it use VLC or dvd player home
not use wmp

Backtrack (2015)







Lingua originale    inglese
Paese di produzione    Australia
Anno    2015
Genere: Thriller/Horror
durata 90'



Adrien Brody, Bruce Spence, Anna Lise Phillips, Jenni Baird, Chloe Bayliss



La vita dello psicolgo Peter Bowers è gettata nello scompiglio quando l'uomo scopre che i suoi pazienti altro non sono che i fantasmi delle persone morte in un incidente di venti anni prima. Temendo di perdere la lucidità mentale, Peter decide di tornare al suo paese natale, dove lo attende una terribile verità che solo lui può affrontare................



Psychologist Peter Bower's life is thrown into turmoil when he discovers a strange secret about his patients. Risking his own sanity, Peter delves into his past to uncover a terrifying ...  








[spoiler]
General
Unique ID                                : 263005496193578397021016938783379338438 (0xC5DD041CE2C92ABDA38D2B413994B4C6)
Complete name                            : Backtrack (2015).H264.ita.eng.sub.ita.eng.iCV-MIRCrew.mkv
Format                                   : Matroska
Format version                           : Version 2
File size                                : 1.37 GiB
Duration                                 : 1h 29mn
Overall bit rate                         : 2 180 Kbps
Movie name                               : VISIT www.icv-crew.org
Encoded date                             : UTC 2017-02-19 17:23:51
Writing application                      : Lavf54.63.100
Writing library                          : Lavf54.63.100
COPYRIGHT                                : robbyrs

Video
ID                                       : 1
Format                                   : AVC
Format/Info                              : Advanced Video Codec
Format profile                           : Main@L4.1
Format settings, CABAC                   : Yes
Format settings, ReFrames                : 2 frames
Codec ID                                 : V_MPEG4/ISO/AVC
Duration                                 : 1h 29mn
Bit rate                                 : 1 280 Kbps
Width                                    : 720 pixels
Height                                   : 300 pixels
Display aspect ratio                     : 2.40:1
Original display aspect ratio            : 2.40:1
Frame rate mode                          : Variable
Frame rate                               : 24.000 fps
Color space                              : YUV
Chroma subsampling                       : 4:2:0
Bit depth                                : 8 bits
Scan type                                : Progressive
Bits/(Pixel*Frame)                       : 0.247
Stream size                              : 797 MiB (57%)
Writing library                          : x264 core 130 r2273
Encoding settings                        : cabac=1 / ref=2 / deblock=1:0:0 / analyse=0x1:0x131 / me=hex / subme=7 / psy=1 / psy_rd=1.00:0.00 / mixed_ref=0 / me_range=16 / chroma_me=1 / trellis=1 / 8x8dct=0 / cqm=0 / deadzone=21,11 / fast_pskip=1 / chroma_qp_offset=-2 / threads=12 / lookahead_threads=2 / sliced_threads=0 / nr=0 / decimate=1 / interlaced=0 / bluray_compat=0 / constrained_intra=0 / bframes=3 / b_pyramid=0 / b_adapt=1 / b_bias=0 / direct=3 / weightb=1 / open_gop=0 / weightp=2 / keyint=240 / keyint_min=24 / scenecut=40 / intra_refresh=0 / rc_lookahead=40 / rc=2pass / mbtree=1 / bitrate=1280 / ratetol=1.0 / qcomp=0.60 / qpmin=10 / qpmax=69 / qpstep=4 / cplxblur=20.0 / qblur=0.5 / vbv_maxrate=24000 / vbv_bufsize=24000 / nal_hrd=none / ip_ratio=1.40 / aq=1:1.00
Language                                 : Italian
Default                                  : Yes
Forced                                   : No
DURATION                                 : 01:29:49.125000000
NUMBER_OF_FRAMES                         : 129339
NUMBER_OF_BYTES                          : 5912144725
_STATISTICS_WRITING_APP                  : mkvmerge v8.7.0 ('All of the above') 64bit
_STATISTICS_WRITING_DATE_UTC             : 2017-02-14 14:52:12
_STATISTICS_TAGS                         : BPS DURATION NUMBER_OF_FRAMES NUMBER_OF_BYTES

Audio #1
ID                                       : 2
Format                                   : AC-3
Format/Info                              : Audio Coding 3
Mode extension                           : CM (complete main)
Codec ID                                 : A_AC3
Duration                                 : 1h 29mn
Bit rate mode                            : Constant
Bit rate                                 : 448 Kbps
Channel(s)                               : 6 channels
Channel positions                        : Front: L C R, Side: L R, LFE
Sampling rate                            : 48.0 KHz
Bit depth                                : 16 bits
Compression mode                         : Lossy
Delay relative to video                  : 1mn 5s
Stream size                              : 288 MiB (21%)
Title                                    : AC3 ITA
Language                                 : Italian
Default                                  : Yes
Forced                                   : No
DURATION                                 : 01:29:41.120000000
NUMBER_OF_FRAMES                         : 168160
NUMBER_OF_BYTES                          : 301342720
_STATISTICS_WRITING_APP                  : mkvmerge v8.7.0 ('All of the above') 64bit
_STATISTICS_WRITING_DATE_UTC             : 2017-02-14 14:52:12
_STATISTICS_TAGS                         : BPS DURATION NUMBER_OF_FRAMES NUMBER_OF_BYTES

Audio #2
ID                                       : 3
Format                                   : AC-3
Format/Info                              : Audio Coding 3
Mode extension                           : CM (complete main)
Codec ID                                 : A_AC3
Duration                                 : 1h 29mn
Bit rate mode                            : Constant
Bit rate                                 : 448 Kbps
Channel(s)                               : 6 channels
Channel positions                        : Front: L C R, Side: L R, LFE
Sampling rate                            : 48.0 KHz
Bit depth                                : 16 bits
Compression mode                         : Lossy
Delay relative to video                  : 1mn 5s
Stream size                              : 288 MiB (21%)
Title                                    : AC3 ENG
Language                                 : English
Default                                  : No
Forced                                   : No
DURATION                                 : 01:29:41.088000000
NUMBER_OF_FRAMES                         : 168159
NUMBER_OF_BYTES                          : 430487040
_STATISTICS_WRITING_APP                  : mkvmerge v8.7.0 ('All of the above') 64bit
_STATISTICS_WRITING_DATE_UTC             : 2017-02-14 14:52:12
_STATISTICS_TAGS                         : BPS DURATION NUMBER_OF_FRAMES NUMBER_OF_BYTES

Text #1
ID                                       : 4
Format                                   : UTF-8
Codec ID                                 : S_TEXT/UTF8
Codec ID/Info                            : UTF-8 Plain Text
Title                                    : FORCED
Language                                 : Italian
Default                                  : Yes
Forced                                   : No
DURATION                                 : 01:02:22.333000000
NUMBER_OF_FRAMES                         : 21
NUMBER_OF_BYTES                          : 712
_STATISTICS_WRITING_APP                  : mkvmerge v8.7.0 ('All of the above') 64bit
_STATISTICS_WRITING_DATE_UTC             : 2017-02-14 14:52:12
_STATISTICS_TAGS                         : BPS DURATION NUMBER_OF_FRAMES NUMBER_OF_BYTES

Text #2
ID                                       : 5
Format                                   : UTF-8
Codec ID                                 : S_TEXT/UTF8
Codec ID/Info                            : UTF-8 Plain Text
Title                                    : REGULAR
Language                                 : Italian
Default                                  : No
Forced                                   : No
DURATION                                 : 01:20:32.084000000
NUMBER_OF_FRAMES                         : 573
NUMBER_OF_BYTES                          : 15372
_STATISTICS_WRITING_APP                  : mkvmerge v8.7.0 ('All of the above') 64bit
_STATISTICS_WRITING_DATE_UTC             : 2017-02-14 14:52:12
_STATISTICS_TAGS                         : BPS DURATION NUMBER_OF_FRAMES NUMBER_OF_BYTES

Text #3
ID                                       : 6
Format                                   : UTF-8
Codec ID                                 : S_TEXT/UTF8
Codec ID/Info                            : UTF-8 Plain Text
Title                                    : NON UDENTI
Language                                 : English
Default                                  : No
Forced                                   : No
DURATION                                 : 01:22:35.283000000
NUMBER_OF_FRAMES                         : 677
NUMBER_OF_BYTES                          : 18602
_STATISTICS_WRITING_APP                  : mkvmerge v8.7.0 ('All of the above') 64bit
_STATISTICS_WRITING_DATE_UTC             : 2017-02-14 14:52:12
_STATISTICS_TAGS                         : BPS DURATION NUMBER_OF_FRAMES NUMBER_OF_BYTES

Menu
00:00:00.000                             : :00:00:00.000
00:09:07.250                             : :00:09:07.250
00:18:00.625                             : :00:18:00.625
00:22:53.833                             : :00:22:53.833
00:30:39.542                             : :00:30:39.542
00:39:44.167                             : :00:39:44.167
00:48:31.625                             : :00:48:31.625
00:58:15.125                             : :00:58:15.125
01:04:50.292                             : :01:04:50.292
01:12:57.957                             : :01:12:57.958
01:17:51.417                             : :01:17:51.417
01:23:22.082                             : :01:23:22.083



[/spoiler]

[/center]

]]>
http://ilcorsaronero.info/tor/124340/Backtrack__2015__H264_Italian_English_Ac3_5_1_sub_ita_eng_iCV_MIRCrew http://ilcorsaronero.info/tor/124340/Backtrack__2015__H264_Italian_English_Ac3_5_1_sub_ita_eng_iCV_MIRCrew Sat, 25 Feb 2017 11:35:41 +0100
Marilyn Manson - Mechanical Animals [Explicit Version] (1998) [Mp3 320 kbps] [Musica] [Seed (35)/Leech (6)]

.: Scheda :.
Artista: Marilyn Manson
Titolo Album: Mechanical Animals
Anno: 1998
Tracce: 14
Formato: Mp3
Durata: 62'


.: Tracce :.
1 - Great Big White World
2 - The Dope Show
3 - Mechanical Animals
4 - Rock Is Dead
5 - Disassociative
6 - The Speed of Pain
7 - Posthuman
8 - I Want to Disappear
9 - I Don't Like the Drugs (But the Drugs Like Me)
10 - New Model, No. 15
11 - User Friendly
12 - Fundamentally Loathsome
13 - The Last Day on Earth
14 - Coma White


.: Dati File :.
[ Info sul file ]
Nome: 01 Great Big White World.mp3
Data: 25/02/2017 14:03:52
Dimensione: 12,048,064 bytes (11.49 MB)

[ ID3 tags ]
Obsolete frame: TYER
Album/movie/show title: Mechanical Animals [Explicit Version]
Title/songname/content desc: Great Big White World
Music CD identifier: value not displayed (yet)
Track number/position in se: 1
Content type: Metal, Metal
Private frame: PeakValue
Private frame: AverageLevel
Private frame: WM/MediaClassSecondaryID
Private frame: WM/MediaClassPrimaryID
Private frame: WM/Provider
Private frame: WM/WMContentID
Private frame: WM/WMCollectionID
Private frame: WM/WMCollectionGroupID
Publisher: Universal Distribution
Private frame: WM/UniqueFileIdentifier
Band/orchestra/accompanimen: Marilyn Manson
Composer: Madonna Wayne Gacy; Marilyn Manson; Twiggy Ramirez; Zim Zum
Lead performer(s)/soloist(s: Marilyn Manson
Length: 301000
Recording time: 1998

[ Info generiche ]
Tipo di file: MPEG-1 Layer III
Initial skip: 4,352 bytes
Internal skip: 108 bytes
MPEG frames: 11536
Durata: 00:05:01 (301.348571 s)
Bitrate: 320 kbps CBR
Frequenza: 44100 Hz
Emphasis: none
Mode: joint stereo
Padding: No

Rapporto generato da AVInaptic (18-11-2007) in data 25 feb 2017, h 14:19:21]]>
http://ilcorsaronero.info/tor/124339/Marilyn_Manson___Mechanical_Animals__Explicit_Version___1998___Mp3_320_kbps_ http://ilcorsaronero.info/tor/124339/Marilyn_Manson___Mechanical_Animals__Explicit_Version___1998___Mp3_320_kbps_ Sat, 25 Feb 2017 11:31:29 +0100
(Trance, PsyTrance) Jordan Suckley – Damaged Asia V1 (2017) Mp3, 320 Kbps, Tracks Image [EDM RG] [Musica] [Seed (0)/Leech (0)] Label: Damaged
Catalog: DAMAGEDDC02
Released: 24.02.2017
Type: Compilation
Style: Electronic, Psy-Trance, Trance

Tracklist:

1. Sneijder – Polarize [Extended Mix] (06:11)
2. HP Source – Planet (06:46)
3. 2nd Phase – Hysteria (07:2
4. Liam Wilson – Unit E2 [Radio Edit] (03:15)
5. The Noble Six – Colony (08:13)
6. Tempo Giusto – Time to Tango [Extended Mix] (06:27)
7. David Forbes & 2nd Phase – Pie Friday [Radio Edit] (04:22)
8. Heatbeat & Jordan Suckley – Brutal (03:20)
9. Tristan, Avalon & Vini Vici – Colors (08:07)
10. Omiki – Balkan (06:27)
11. Ace Ventura & Captain Hook – The Jolly Roger [Future Frequency Remix] (08:24)
12. John 00 Fleming – Dawn Over the Amazon [Jordan Suckley Remix] (06:24)
13. Kriess Guyte – Singularity [Radio Edit] (03:10)
14. Artificials – Sequences (07:53)
15. Relativ – Human Being (07:49)
16. Marmion – Schoneberg [Nicholson Remix] (06:51)
17. Cold Blue & Johnny Yono – Fall Into Dusk (06:4
18. Jordan Suckley – Ritual [ReOrder Remix Edit] (03:14)
19. Ronald van Gelderen, Paul van Dyk, Eric Lumiere & Gaelan – Everyone Needs Love feat. Gaelan feat. Eric Lumiere [PvD Club Mix] (03:23)

20. Jordan Suckley – Damaged Asia V1 Continuous Mix (01:12:23)]]>
http://ilcorsaronero.info/tor/124338/__Trance,_PsyTrance__Jordan_Suckley_–_Damaged_Asia_V1__2017__Mp3,_320_Kbps,_Tracks_Image__EDM_RG_ http://ilcorsaronero.info/tor/124338/__Trance,_PsyTrance__Jordan_Suckley_–_Damaged_Asia_V1__2017__Mp3,_320_Kbps,_Tracks_Image__EDM_RG_ Sat, 25 Feb 2017 10:13:47 +0100