ilCorSaRoNeRo - iTALiAN Torrent Search Engine RSS FEED il|CorSaRo|NeRo http://ilcorsaronero.info Mon, 27 Mar 2017 16:11:23 +0200 (c) 2017 ilCorSaRoNeRo - iTALiAN Torrent Search Engine [DLMux 720p - H264 - Ita Mp3] Scorpion S03e09 - Una madre difficile.by.IperB.mkv [Serie TV] [Seed (0)/Leech (0)] Scorpion

Stagione 3 - Episodi 24












.: Scheda della serie :.

Titolo Serie: Scorpion
Nazione: Stati Uniti d'America
Anno di messa in onda: 2014 - in produzione
Genere: Azione,Poliziesco
Episodi: 22
Durata Episodio: 42 min. circa




.: Trama :.

Scorpion, nota anche con il titolo stilizzato </scorpion>, ? una serie televisiva statunitense creata da Nick Santora per la CBS.

La serie segue le gesta del genio Walter O'Brien e del suo team di "cervelloni" ingaggiati dal governo statunitense per risolvere complicati casi di varia natura. La serie ha debuttato negli Stati Uniti il 22 settembre 2014, registrando buoni dati d'ascolto.


.: Personaggi, interpreti e doppiatori :.


Interpreti e personaggi

   
   Elyes Gabel: Walter O'Brien
   Katharine McPhee: Paige Dineen
   Robert Patrick: Agente Cabe Gallo
   Eddie Kaye Thomas: Toby Curtis
   Jadyn Wong: Happy Quinn
   Ari Stidham: Sylvester Dodd







]]>
http://ilcorsaronero.info/tor/125437/_DLMux_720p___H264___Ita_Mp3__Scorpion_S03e09___Una_madre_difficile_by_IperB_mkv http://ilcorsaronero.info/tor/125437/_DLMux_720p___H264___Ita_Mp3__Scorpion_S03e09___Una_madre_difficile_by_IperB_mkv Mon, 27 Mar 2017 16:06:55 +0200
[DLMux 720p - H264 - Ita Mp3] Scorpion S03e08 - Una vera famiglia.by.IperB.mkv [Serie TV] [Seed (0)/Leech (0)] Scorpion

Stagione 3 - Episodi 24












.: Scheda della serie :.

Titolo Serie: Scorpion
Nazione: Stati Uniti d'America
Anno di messa in onda: 2014 - in produzione
Genere: Azione,Poliziesco
Episodi: 22
Durata Episodio: 42 min. circa




.: Trama :.

Scorpion, nota anche con il titolo stilizzato </scorpion>, ? una serie televisiva statunitense creata da Nick Santora per la CBS.

La serie segue le gesta del genio Walter O'Brien e del suo team di "cervelloni" ingaggiati dal governo statunitense per risolvere complicati casi di varia natura. La serie ha debuttato negli Stati Uniti il 22 settembre 2014, registrando buoni dati d'ascolto.


.: Personaggi, interpreti e doppiatori :.


Interpreti e personaggi

   
   Elyes Gabel: Walter O'Brien
   Katharine McPhee: Paige Dineen
   Robert Patrick: Agente Cabe Gallo
   Eddie Kaye Thomas: Toby Curtis
   Jadyn Wong: Happy Quinn
   Ari Stidham: Sylvester Dodd




]]>
http://ilcorsaronero.info/tor/125436/_DLMux_720p___H264___Ita_Mp3__Scorpion_S03e08___Una_vera_famiglia_by_IperB_mkv http://ilcorsaronero.info/tor/125436/_DLMux_720p___H264___Ita_Mp3__Scorpion_S03e08___Una_vera_famiglia_by_IperB_mkv Mon, 27 Mar 2017 16:04:54 +0200
Serge Prokofiev - Peter and The Wolf (2007) [DVD9 NTSC] [DVD] [Seed (1)/Leech (2)]

Release 03 Sep. 2007
1 DVD-Video
DVD-VIDEO NTSC 0440 073 4267 1 GH
STEREO: PCM / SURROUND: DTS 5.1 · Picture Format: 4:3
Subtitles: German/French/Spanish/Chinese
A Spitting Swanns production in association with
The Media Investment Club and Deutsche Grammophon Gesellschaft


.: Tracklist :.


Narrators: Sting · Roberto Benigni
Chamber Orchestra of Europe · Claudio Abbado
Directed by Christopher Swann, Roger Law and Steve Bendelack


A delightful DVD of Prokofiev's universally beloved and popular "musical tale," brought to life by human actors in a fairytale world inhabited by Muppet-like characters. Pop star Sting (The Police) lends his voice to a Sting puppet for the witty, enlightening commentary that guides the viewer through this charming suite. Also included is the Italian version with commentary by Academy® Award-winner Roberto Benigni, (Life is Beautiful) acted out by a Benigni puppet.



Symphonie Classique · Classical Symphony
Ouvertüre über hebräische Themen · Overture
on Hebrew Themes op. 34b
Marsch · March op. 99



.: Other Files :.

log+cue+m3u+cover


]]>
http://ilcorsaronero.info/tor/125435/Serge_Prokofiev___Peter_and_The_Wolf__2007___DVD9_NTSC_ http://ilcorsaronero.info/tor/125435/Serge_Prokofiev___Peter_and_The_Wolf__2007___DVD9_NTSC_ Mon, 27 Mar 2017 15:10:13 +0200
Babbo Bastardo 2 (2016).H264.Italian.English.Ac3.5.1.sub.ita.eng.iCV-MIRCrew [BDRiP] [Seed (4)/Leech (58)]

[center]by www.icw-crew.org


NO FOUND ONLY ORIGINAL RELEASE



My release is always in double track audio italian and Original audio
for select it use VLC or dvd player home
not use wmp

Babbo Bastardo 2 - Bad Santa 2 (2016)







Titolo Originale    Bad Santa 2
Paese                   USA
Anno                    2016
Durata                    87 Min
Genere                    Commedia
Regia                    Mark Waters
Sceneggiatura            Shauna Cross,
Casa Di Produzione    Miramax
Distribuzione (Italia)    Koch Media
Fotografia            Theo Van De Sande
Montaggio            Travis Sittard



Billy Bob Thornton, Tony Cox, Christina Hendricks, Kathy Bates, Brett Kelly, Ryan Hansen, Valérie Wiseman, Selah Victor.



Willie fa squadra ancora una volta con il suo piccolo aiutante arrabbiato, Marcus, per svaligiare un ente di beneficenza di Chicago alla vigilia di Natale. Non può mancare anche "il ragazzino" - il paffuto e "speciale" Thurman Merman: un raggio di sole di oltre 110 kg, riuscito a tirar fuori frammenti di umanità da Willie................



Fueled by cheap whiskey, greed and hatred, Willie teams up once again with his angry little sidekick, Marcus, to knock off a Chicago charity on Christmas Eve. .......................











[spoiler]
General
Unique ID                                : 214007608770484619530660093613666966399 (0xA1005DBFA9722A57DB5D367AFF079B7F)
Complete name                            : Babbo Bastardo 2 - Bad Santa 2 (2016).ita.eng.sub.ita.eng.iCV-MIRCrew.mkv
Format                                   : Matroska
Format version                           : Version 2
File size                                : 1.41 GiB
Duration                                 : 1h 32mn
Overall bit rate                         : 2 191 Kbps
Movie name                               : VISIT www.icv-crew.org
Encoded date                             : UTC 2017-03-23 17:42:04
Writing application                      : Lavf54.63.100
Writing library                          : Lavf54.63.100
COPYRIGHT                                : robbyrs

Video
ID                                       : 1
Format                                   : AVC
Format/Info                              : Advanced Video Codec
Format profile                           : Main@L4.1
Format settings, CABAC                   : Yes
Format settings, ReFrames                : 2 frames
Codec ID                                 : V_MPEG4/ISO/AVC
Duration                                 : 1h 32mn
Bit rate                                 : 1 290 Kbps
Width                                    : 720 pixels
Height                                   : 384 pixels
Display aspect ratio                     : 16:9
Original display aspect ratio            : 16:9
Frame rate mode                          : Variable
Frame rate                               : 23.976 fps
Color space                              : YUV
Chroma subsampling                       : 4:2:0
Bit depth                                : 8 bits
Scan type                                : Progressive
Bits/(Pixel*Frame)                       : 0.195
Stream size                              : 826 MiB (57%)
Writing library                          : x264 core 130 r2273
Encoding settings                        : cabac=1 / ref=2 / deblock=1:0:0 / analyse=0x1:0x131 / me=hex / subme=7 / psy=1 / psy_rd=1.00:0.00 / mixed_ref=0 / me_range=16 / chroma_me=1 / trellis=1 / 8x8dct=0 / cqm=0 / deadzone=21,11 / fast_pskip=1 / chroma_qp_offset=-2 / threads=12 / lookahead_threads=2 / sliced_threads=0 / nr=0 / decimate=1 / interlaced=0 / bluray_compat=0 / constrained_intra=0 / bframes=3 / b_pyramid=0 / b_adapt=1 / b_bias=0 / direct=3 / weightb=1 / open_gop=0 / weightp=2 / keyint=230 / keyint_min=23 / scenecut=40 / intra_refresh=0 / rc_lookahead=40 / rc=2pass / mbtree=1 / bitrate=1290 / ratetol=1.0 / qcomp=0.60 / qpmin=10 / qpmax=69 / qpstep=4 / cplxblur=20.0 / qblur=0.5 / vbv_maxrate=24000 / vbv_bufsize=24000 / nal_hrd=none / ip_ratio=1.40 / aq=1:1.00
Language                                 : Italian
Default                                  : Yes
Forced                                   : No
DURATION                                 : 01:32:16.531000000
NUMBER_OF_FRAMES                         : 132744
NUMBER_OF_BYTES                          : 6520350155
_STATISTICS_WRITING_APP                  : mkvmerge v8.7.0 ('All of the above') 64bit
_STATISTICS_WRITING_DATE_UTC             : 2017-03-17 12:14:58
_STATISTICS_TAGS                         : BPS DURATION NUMBER_OF_FRAMES NUMBER_OF_BYTES

Audio #1
ID                                       : 2
Format                                   : AC-3
Format/Info                              : Audio Coding 3
Mode extension                           : CM (complete main)
Codec ID                                 : A_AC3
Duration                                 : 1h 32mn
Bit rate mode                            : Constant
Bit rate                                 : 448 Kbps
Channel(s)                               : 6 channels
Channel positions                        : Front: L C R, Side: L R, LFE
Sampling rate                            : 48.0 KHz
Bit depth                                : 16 bits
Compression mode                         : Lossy
Delay relative to video                  : 1mn 5s
Stream size                              : 296 MiB (20%)
Language                                 : Italian
Default                                  : No
Forced                                   : No
DURATION                                 : 01:32:16.544000000
NUMBER_OF_FRAMES                         : 173017
NUMBER_OF_BYTES                          : 442923520
_STATISTICS_WRITING_APP                  : mkvmerge v8.7.0 ('All of the above') 64bit
_STATISTICS_WRITING_DATE_UTC             : 2017-03-17 12:14:58
_STATISTICS_TAGS                         : BPS DURATION NUMBER_OF_FRAMES NUMBER_OF_BYTES

Audio #2
ID                                       : 3
Format                                   : AC-3
Format/Info                              : Audio Coding 3
Mode extension                           : CM (complete main)
Codec ID                                 : A_AC3
Duration                                 : 1h 32mn
Bit rate mode                            : Constant
Bit rate                                 : 448 Kbps
Channel(s)                               : 6 channels
Channel positions                        : Front: L C R, Side: L R, LFE
Sampling rate                            : 48.0 KHz
Bit depth                                : 16 bits
Compression mode                         : Lossy
Delay relative to video                  : 1mn 5s
Stream size                              : 296 MiB (20%)
Language                                 : English
Default                                  : No
Forced                                   : No
DURATION                                 : 01:32:16.523000000
NUMBER_OF_FRAMES                         : 519049
NUMBER_OF_BYTES                          : 1044326656
_STATISTICS_WRITING_APP                  : mkvmerge v8.7.0 ('All of the above') 64bit
_STATISTICS_WRITING_DATE_UTC             : 2017-03-17 12:14:58
_STATISTICS_TAGS                         : BPS DURATION NUMBER_OF_FRAMES NUMBER_OF_BYTES

Text
ID                                       : 4
Format                                   : ASS
Codec ID                                 : S_TEXT/ASS
Codec ID/Info                            : Advanced Sub Station Alpha
Compression mode                         : Lossless
Title                                    : NON UDENTI
Language                                 : English
Default                                  : No
Forced                                   : No
DURATION                                 : 01:25:28.381000000
NUMBER_OF_FRAMES                         : 1453
NUMBER_OF_BYTES                          : 62556
_STATISTICS_WRITING_APP                  : mkvmerge v8.7.0 ('All of the above') 64bit
_STATISTICS_WRITING_DATE_UTC             : 2017-03-17 12:14:58
_STATISTICS_TAGS                         : BPS DURATION NUMBER_OF_FRAMES NUMBER_OF_BYTES

Menu
00:00:00.000                             : :00:00:00.000
00:05:53.226                             : :00:05:53.226
00:11:00.743                             : :00:11:00.743
00:16:22.855                             : :00:16:22.855
00:20:13.545                             : :00:20:13.545
00:25:28.902                             : :00:25:28.902
00:29:34.646                             : :00:29:34.646
00:33:45.565                             : :00:33:45.565
00:36:51.333                             : :00:36:51.333
00:41:14.221                             : :00:41:14.221
00:43:27.896                             : :00:43:27.896
00:50:13.635                             : :00:50:13.635
00:58:34.760                             : :00:58:34.760
01:03:55.373                             : :01:03:55.373
01:11:07.512                             : :01:11:07.512
01:15:37.990                             : :01:15:37.990
01:19:47.698                             : :01:19:47.698
01:23:09.692                             : :01:23:09.692




[/spoiler]

[/center]

]]>
http://ilcorsaronero.info/tor/125434/Babbo_Bastardo_2__2016__H264_Italian_English_Ac3_5_1_sub_ita_eng_iCV_MIRCrew http://ilcorsaronero.info/tor/125434/Babbo_Bastardo_2__2016__H264_Italian_English_Ac3_5_1_sub_ita_eng_iCV_MIRCrew Mon, 27 Mar 2017 14:21:35 +0200
Free State of Jones (2016).H264.Italian.English.Ac3.5.1.sub.ita.eng.iCV-MIRCrew [BDRiP] [Seed (42)/Leech (443)]

[center]by www.icv-crew.org


NO FOUND ONLY ORIGINAL RELEASE



My release is always in double track audio italian and Original audio
for select it use VLC or dvd player home
not use wmp

Free State of Jones (2016)







   DATA USCITA: 01 dicembre 2016
   GENERE: Drammatico, Storico, Azione
   ANNO: 2016
   REGIA: Gary Ross
   SCENEGGIATURA: Gary Ross
   FOTOGRAFIA: Benoît Delhomme
   MONTAGGIO: Pamela Martin, Juliette Welfling
   MUSICHE: Nicholas Britell
   PRODUZIONE: Larger Than Life Productions, Route One Films, Vendian Entertainment.
   DISTRIBUZIONE: 01 Distribution
   PAESE: USA
   DURATA: 139 Min



Matthew McConaughey, Gugu Mbatha-Raw, Mahershala Ali, Keri Russell, Brian Lee Franklin, Donald Watkins, Christopher Berry, Sean Bridgers, Bill Tangradi, Thomas Francis Murphy, Joe Chrest, Jacob Lofland, Jessica Collins, Gary Grubbs



Free State of Jones racconta gli straordinari eventi di un piccolo episodio della Storia Americana. Protagonista della vicenda è Newt Knight, un coraggioso contadino del Mississipi, figura guida di un'improbabile banda di contadini bianchi poveri e schiavi fuggiaschi che danno vita a una storica rivolta armata contro la Confederazione nel periodo culmine della Guerra Civile.................



A disillusioned Confederate army deserter returns to Mississippi and leads a militia of fellow deserters, runaway slaves, and women in an uprising against the corrupt local Confederate government











[spoiler]
General
Unique ID                                : 263057517571276050761627065037275230208 (0xC5E708F6FBC6F6EF5BFBF5CE9D5F7000)
Complete name                            : Free State of Jones (2016).H264,ita.eng.sub.ita.eng.iCV-MIRCrew.mkv
Format                                   : Matroska
Format version                           : Version 2
File size                                : 2.14 GiB
Duration                                 : 2h 19mn
Overall bit rate                         : 2 188 Kbps
Movie name                               : VISIT www.icv-crew.org
Encoded date                             : UTC 2017-03-24 18:51:53
Writing application                      : Lavf54.63.100
Writing library                          : Lavf54.63.100
COPYRIGHT                                : robbyrs

Video
ID                                       : 1
Format                                   : AVC
Format/Info                              : Advanced Video Codec
Format profile                           : Main@L4.1
Format settings, CABAC                   : Yes
Format settings, ReFrames                : 2 frames
Codec ID                                 : V_MPEG4/ISO/AVC
Duration                                 : 2h 19mn
Bit rate                                 : 1 290 Kbps
Width                                    : 720 pixels
Height                                   : 384 pixels
Display aspect ratio                     : 1.854
Original display aspect ratio            : 1.853
Frame rate mode                          : Variable
Frame rate                               : 24.000 fps
Color space                              : YUV
Chroma subsampling                       : 4:2:0
Bit depth                                : 8 bits
Scan type                                : Progressive
Bits/(Pixel*Frame)                       : 0.194
Stream size                              : 1.22 GiB (57%)
Writing library                          : x264 core 130 r2273
Encoding settings                        : cabac=1 / ref=2 / deblock=1:0:0 / analyse=0x1:0x131 / me=hex / subme=7 / psy=1 / psy_rd=1.00:0.00 / mixed_ref=0 / me_range=16 / chroma_me=1 / trellis=1 / 8x8dct=0 / cqm=0 / deadzone=21,11 / fast_pskip=1 / chroma_qp_offset=-2 / threads=12 / lookahead_threads=2 / sliced_threads=0 / nr=0 / decimate=1 / interlaced=0 / bluray_compat=0 / constrained_intra=0 / bframes=3 / b_pyramid=0 / b_adapt=1 / b_bias=0 / direct=3 / weightb=1 / open_gop=0 / weightp=2 / keyint=240 / keyint_min=24 / scenecut=40 / intra_refresh=0 / rc_lookahead=40 / rc=2pass / mbtree=1 / bitrate=1290 / ratetol=1.0 / qcomp=0.60 / qpmin=10 / qpmax=69 / qpstep=4 / cplxblur=20.0 / qblur=0.5 / vbv_maxrate=24000 / vbv_bufsize=24000 / nal_hrd=none / ip_ratio=1.40 / aq=1:1.00
Language                                 : Italian
Default                                  : Yes
Forced                                   : No
DURATION                                 : 02:19:27.875000000
NUMBER_OF_FRAMES                         : 200829
NUMBER_OF_BYTES                          : 10028984468
_STATISTICS_WRITING_APP                  : mkvmerge v8.7.0 ('All of the above') 64bit
_STATISTICS_WRITING_DATE_UTC             : 2017-03-23 18:11:34
_STATISTICS_TAGS                         : BPS DURATION NUMBER_OF_FRAMES NUMBER_OF_BYTES

Audio #1
ID                                       : 2
Format                                   : AC-3
Format/Info                              : Audio Coding 3
Mode extension                           : CM (complete main)
Codec ID                                 : A_AC3
Duration                                 : 2h 19mn
Bit rate mode                            : Constant
Bit rate                                 : 448 Kbps
Channel(s)                               : 6 channels
Channel positions                        : Front: L C R, Side: L R, LFE
Sampling rate                            : 48.0 KHz
Bit depth                                : 16 bits
Compression mode                         : Lossy
Delay relative to video                  : 1mn 5s
Stream size                              : 448 MiB (20%)
Title                                    : AC3 ITA
Language                                 : Italian
Default                                  : No
Forced                                   : No
DURATION                                 : 02:19:45.472000000
NUMBER_OF_FRAMES                         : 262046
NUMBER_OF_BYTES                          : 670837760
_STATISTICS_WRITING_APP                  : mkvmerge v8.7.0 ('All of the above') 64bit
_STATISTICS_WRITING_DATE_UTC             : 2017-03-23 18:11:34
_STATISTICS_TAGS                         : BPS DURATION NUMBER_OF_FRAMES NUMBER_OF_BYTES

Audio #2
ID                                       : 3
Format                                   : AC-3
Format/Info                              : Audio Coding 3
Mode extension                           : CM (complete main)
Codec ID                                 : A_AC3
Duration                                 : 2h 19mn
Bit rate mode                            : Constant
Bit rate                                 : 448 Kbps
Channel(s)                               : 6 channels
Channel positions                        : Front: L C R, Side: L R, LFE
Sampling rate                            : 48.0 KHz
Bit depth                                : 16 bits
Compression mode                         : Lossy
Delay relative to video                  : 1mn 5s
Stream size                              : 448 MiB (20%)
Title                                    : AC3 ENG
Language                                 : English
Default                                  : No
Forced                                   : No
DURATION                                 : 02:19:27.936000000
NUMBER_OF_FRAMES                         : 261498
NUMBER_OF_BYTES                          : 669434880
_STATISTICS_WRITING_APP                  : mkvmerge v8.7.0 ('All of the above') 64bit
_STATISTICS_WRITING_DATE_UTC             : 2017-03-23 18:11:34
_STATISTICS_TAGS                         : BPS DURATION NUMBER_OF_FRAMES NUMBER_OF_BYTES

Text #1
ID                                       : 4
Format                                   : UTF-8
Codec ID                                 : S_TEXT/UTF8
Codec ID/Info                            : UTF-8 Plain Text
Title                                    : FORCED
Language                                 : Italian
Default                                  : Yes
Forced                                   : No
DURATION                                 : 02:11:48.331000000
NUMBER_OF_FRAMES                         : 44
NUMBER_OF_BYTES                          : 2215
_STATISTICS_WRITING_APP                  : mkvmerge v8.7.0 ('All of the above') 64bit
_STATISTICS_WRITING_DATE_UTC             : 2017-03-23 18:11:34
_STATISTICS_TAGS                         : BPS DURATION NUMBER_OF_FRAMES NUMBER_OF_BYTES

Text #2
ID                                       : 5
Format                                   : UTF-8
Codec ID                                 : S_TEXT/UTF8
Codec ID/Info                            : UTF-8 Plain Text
Title                                    : REGULAR
Language                                 : Italian
Default                                  : No
Forced                                   : No
DURATION                                 : 02:14:24.625000000
NUMBER_OF_FRAMES                         : 1291
NUMBER_OF_BYTES                          : 36855
_STATISTICS_WRITING_APP                  : mkvmerge v8.7.0 ('All of the above') 64bit
_STATISTICS_WRITING_DATE_UTC             : 2017-03-23 18:11:34
_STATISTICS_TAGS                         : BPS DURATION NUMBER_OF_FRAMES NUMBER_OF_BYTES

Text #3
ID                                       : 6
Format                                   : UTF-8
Codec ID                                 : S_TEXT/UTF8
Codec ID/Info                            : UTF-8 Plain Text
Title                                    : REGULAR
Language                                 : English
Default                                  : No
Forced                                   : No
DURATION                                 : 02:10:59.404000000
NUMBER_OF_FRAMES                         : 1464
NUMBER_OF_BYTES                          : 40693
_STATISTICS_WRITING_APP                  : mkvmerge v8.7.0 ('All of the above') 64bit
_STATISTICS_WRITING_DATE_UTC             : 2017-03-23 18:11:34
_STATISTICS_TAGS                         : BPS DURATION NUMBER_OF_FRAMES NUMBER_OF_BYTES

Menu
00:00:00.000                             : :00:00:00.000
00:08:26.208                             : :00:08:26.208
00:15:28.208                             : :00:15:28.208
00:24:03.333                             : :00:24:03.333
00:31:01.667                             : :00:31:01.667
00:39:10.500                             : :00:39:10.500
00:49:53.417                             : :00:49:53.417
00:56:41.083                             : :00:56:41.083
01:05:09.333                             : :01:05:09.333
01:13:35.000                             : :01:13:35.000
01:25:06.333                             : :01:25:06.333
01:37:16.667                             : :01:37:16.667
01:46:03.667                             : :01:46:03.667
01:56:54.208                             : :01:56:54.208
02:02:43.583                             : :02:02:43.583
02:13:13.000                             : :02:13:13.000


[/spoiler]

[/center]

]]>
http://ilcorsaronero.info/tor/125433/Free_State_of_Jones__2016__H264_Italian_English_Ac3_5_1_sub_ita_eng_iCV_MIRCrew http://ilcorsaronero.info/tor/125433/Free_State_of_Jones__2016__H264_Italian_English_Ac3_5_1_sub_ita_eng_iCV_MIRCrew Mon, 27 Mar 2017 12:42:08 +0200
La tartaruga rossa (2016).H264.No Language.Ac3.5.1.iCV-MIRCrew [Anime] [Seed (38)/Leech (33)]
[center]by www.icv-crew.org


NO FOUND ONLY ORIGINAL RELEASE



My release is always in double track audio italian and Original audio
for select it use VLC or dvd player home
not use wmp

La tartaruga rossa - La tortue rouge (2016)










   DATA USCITA: 27 marzo 2017
   GENERE: Animazione
   ANNO: 2016
   REGIA: Michael Dudok de Wit
   SCENEGGIATURA: Pascale Ferran, Michael Dudok de Wit
   MONTAGGIO: Céline Kélépikis
   PRODUZIONE: Arte France Cinéma, Prima Linea Productions, Studio Ghibli
   DISTRIBUZIONE: Bim Distribuzione
   PAESE: Francia, Giappone
   DURATA: 80 Min

 


******************************



La Tartaruga Rossa racconta le grandi tappe della vita di un essere umano, attraverso la storia di un naufrago su un'isola deserta popolata di tartarughe, granchi e uccelli.



The dialogue-less film follows the major life stages of a castaway on a deserted tropical island populated by turtles, crabs and birds................











[spoiler]
General
Unique ID                                : 184770063172026153023743827595566868896 (0x8B016B74AA8236848CD78DEFE98169A0)
Complete name                            : E:\La tartaruga rossa (2016).H264.no language.iCV-MIRCrew.mkv
Format                                   : Matroska
Format version                           : Version 2
File size                                : 1 007 MiB
Duration                                 : 1h 20mn
Overall bit rate                         : 1 741 Kbps
Movie name                               : VISIT www.icv-crew.org
Encoded date                             : UTC 2017-03-02 17:58:13
Writing application                      : Lavf54.63.100
Writing library                          : Lavf54.63.100
COPYRIGHT                                : robbyrs

Video
ID                                       : 1
Format                                   : AVC
Format/Info                              : Advanced Video Codec
Format profile                           : Main@L4.1
Format settings, CABAC                   : Yes
Format settings, ReFrames                : 2 frames
Codec ID                                 : V_MPEG4/ISO/AVC
Duration                                 : 1h 20mn
Bit rate                                 : 1 290 Kbps
Width                                    : 720 pixels
Height                                   : 384 pixels
Display aspect ratio                     : 16:9
Frame rate mode                          : Variable
Frame rate                               : 23.976 fps
Color space                              : YUV
Chroma subsampling                       : 4:2:0
Bit depth                                : 8 bits
Scan type                                : Progressive
Bits/(Pixel*Frame)                       : 0.195
Stream size                              : 728 MiB (72%)
Writing library                          : x264 core 130 r2273
Encoding settings                        : cabac=1 / ref=2 / deblock=1:0:0 / analyse=0x1:0x131 / me=hex / subme=7 / psy=1 / psy_rd=1.00:0.00 / mixed_ref=0 / me_range=16 / chroma_me=1 / trellis=1 / 8x8dct=0 / cqm=0 / deadzone=21,11 / fast_pskip=1 / chroma_qp_offset=-2 / threads=12 / lookahead_threads=2 / sliced_threads=0 / nr=0 / decimate=1 / interlaced=0 / bluray_compat=0 / constrained_intra=0 / bframes=3 / b_pyramid=0 / b_adapt=1 / b_bias=0 / direct=3 / weightb=1 / open_gop=0 / weightp=2 / keyint=230 / keyint_min=23 / scenecut=40 / intra_refresh=0 / rc_lookahead=40 / rc=2pass / mbtree=1 / bitrate=1290 / ratetol=1.0 / qcomp=0.60 / qpmin=10 / qpmax=69 / qpstep=4 / cplxblur=20.0 / qblur=0.5 / vbv_maxrate=24000 / vbv_bufsize=24000 / nal_hrd=none / ip_ratio=1.40 / aq=1:1.00
Language                                 : Italian
Default                                  : Yes
Forced                                   : No
DURATION                                 : 01:20:49.637000000
NUMBER_OF_FRAMES                         : 116275
NUMBER_OF_BYTES                          : 6535293817
_STATISTICS_WRITING_APP                  : mkvmerge v8.7.0 ('All of the above') 64bit
_STATISTICS_WRITING_DATE_UTC             : 2017-02-10 07:50:18
_STATISTICS_TAGS                         : BPS DURATION NUMBER_OF_FRAMES NUMBER_OF_BYTES

Audio
ID                                       : 2
Format                                   : AC-3
Format/Info                              : Audio Coding 3
Mode extension                           : CM (complete main)
Codec ID                                 : A_AC3
Duration                                 : 1h 20mn
Bit rate mode                            : Constant
Bit rate                                 : 448 Kbps
Channel(s)                               : 6 channels
Channel positions                        : Front: L C R, Side: L R, LFE
Sampling rate                            : 48.0 KHz
Bit depth                                : 16 bits
Compression mode                         : Lossy
Delay relative to video                  : 1mn 5s
Stream size                              : 259 MiB (26%)
Title                                    : AC3 5.1
Language                                 : Italian
Default                                  : No
Forced                                   : No
DURATION                                 : 01:20:49.664000000
NUMBER_OF_FRAMES                         : 151552
NUMBER_OF_BYTES                          : 387973120
_STATISTICS_WRITING_APP                  : mkvmerge v8.7.0 ('All of the above') 64bit
_STATISTICS_WRITING_DATE_UTC             : 2017-02-10 07:50:18
_STATISTICS_TAGS                         : BPS DURATION NUMBER_OF_FRAMES NUMBER_OF_BYTES

Menu
00:00:00.000                             : :00:00:00.000
00:07:05.342                             : :00:07:05.342
00:14:28.201                             : :00:14:28.201
00:20:13.838                             : :00:20:13.838
00:29:27.099                             : :00:29:27.099
00:39:02.590                             : :00:39:02.590
00:50:56.804                             : :00:50:56.804
00:59:52.756                             : :00:59:52.756
01:08:53.129                             : :01:08:53.129
01:16:19.950                             : :01:16:19.950


[/spoiler]

[/center]

]]>
http://ilcorsaronero.info/tor/125432/La_tartaruga_rossa__2016__H264_No_Language_Ac3_5_1_iCV_MIRCrew http://ilcorsaronero.info/tor/125432/La_tartaruga_rossa__2016__H264_No_Language_Ac3_5_1_iCV_MIRCrew Mon, 27 Mar 2017 11:57:32 +0200
Albert Ayler - Witches Devils (1988) [Mp3 320 kbps] [Musica] [Seed (12)/Leech (6)]

.: Scheda :.
Artista: Albert Ayler
Titolo Album: Witches & Devils
Anno: 1988
Tracce: 4
Formato: Mp3
Durata: 36'


.: Tracce :.
1 - Witches and Devils
2 - Spirits
3 - Holy, Holy
4 - Saints


.: Dati File :.
[ Info sul file ]
Nome: 01 Witches and Devils.mp3
Data: 25/03/2017 21:56:26
Dimensione: 29,287,636 bytes (27.931 MB)

[ ID3 tags ]
Obsolete frame: TYER
Album/movie/show title: Witches & Devils
Title/songname/content desc: Witches and Devils
Music CD identifier: value not displayed (yet)
Track number/position in se: 1
Content type: Jazz, Jazz
Private frame: PeakValue
Private frame: AverageLevel
Private frame: WM/MediaClassSecondaryID
Private frame: WM/MediaClassPrimaryID
Private frame: WM/Provider
Private frame: WM/WMContentID
Private frame: WM/WMCollectionID
Private frame: WM/WMCollectionGroupID
Publisher: Black Lion
Private frame: WM/UniqueFileIdentifier
Band/orchestra/accompanimen: Albert Ayler
Composer: Albert Ayler
Lead performer(s)/soloist(s: Albert Ayler
Length: 732000
Recording time: 1964

[ Info generiche ]
Tipo di file: MPEG-1 Layer III
Initial skip: 4,352 bytes
Internal skip: 108 bytes
MPEG frames: 28049
Durata: 00:12:13 (732.708571 s)
Bitrate: 320 kbps CBR
Frequenza: 44100 Hz
Emphasis: none
Mode: joint stereo
Padding: No

Rapporto generato da AVInaptic (18-11-2007) in data 25 mar 2017, h 22:00:11]]>
http://ilcorsaronero.info/tor/125431/Albert_Ayler___Witches___Devils__1988___Mp3_320_kbps_ http://ilcorsaronero.info/tor/125431/Albert_Ayler___Witches___Devils__1988___Mp3_320_kbps_ Mon, 27 Mar 2017 11:54:13 +0200
Vulcano - Clementino (2017) [Musica] [Seed (0)/Leech (0)] [/img]

Tracklist
01 – Uè Ammo
02 – Stamm Ccà
03 – Cenere
04 – Tutti Scienziati
05 – Keep Calm E Sientete A Clementino
06 – Ragazzi Fuori
07 – Deserto
08 – Joint
09 – Coffeeshop
10 – La Cosa Più Bella Che Ho
11 – Spartanapoli
12 – A Capa Sotto
13 – Paolo Sorrentino
]]>
http://ilcorsaronero.info/tor/125430/Vulcano___Clementino__2017_ http://ilcorsaronero.info/tor/125430/Vulcano___Clementino__2017_ Mon, 27 Mar 2017 10:41:33 +0200
Uccidi.i.tuoi.amici.Kill.your.friends.2015.BDRip.Xvid.AC3.ITA.CB01 [BDRiP] [Seed (44)/Leech (99)] Segui le mie Release QUA'


TITOLO ORIGINALE: Kill Your Friends
GENERE: Commedia, Crime, Thriller
DATA USCITA: 2015-11-06
DURATA: 104
DIRECTOR: Owen Harris
SCREENPLAY: John Niven
NOVEL: John Niven
PRODUCER: Gregor Cameron, Will Clarke
MUSIC: Junkie XL
DIRECTOR OF PHOTOGRAPHY: Gustav Danielsson
EDITOR: Billy Smedley
CASTING: Colin Jones
PRODUCTION DESIGN: Charlotte Pearson
ART DIRECTION: James Price
COSTUME DESIGN: Susie Coulthard
VISUAL EFFECTS SUPERVISOR: Justin Hutchinson-Chatburn
STEADICAM OPERATOR: Rick Woollard
SECOND UNIT CINEMATOGRAPHER: Rick Woollard
STILL PHOTOGRAPHER: Dean Rogers
CASTING ASSOCIATE: Toby Spigel
CO-COSTUME DESIGNER: Hannah Glossop
COSTUME SUPERVISOR: Mollie Barr
MUSIC SUPERVISOR: Rich Robinson
CHOREOGRAPHER: Lyndsey Orr
SCRIPT SUPERVISOR: Jane Jackson
ADR & DUBBING: Phoebe Street
FOLEY: Peter Burgis
DIALOGUE EDITOR: Matt Davies
SOUND RECORDIST: Henry Milliner
SOUND DESIGNER: Peter Hanson
SOUND RE-RECORDING MIXER: Adam Scrivener
SUPERVISING SOUND EDITOR: Glen Gathard
MAKEUP DESIGNER: Tanya Lodge
DIGITAL INTERMEDIATE: Thom Berryman
ATTORI: Nicholas Hoult, Craig Roberts, Georgia King, Tom Riley, Jim Piddock, Edward Hogg, James Corden, Joseph Mawle, Ed Skrein, Ella Smith, Moritz Bleibtreu, Rosanna Arquette, Al Weaver, Bronson Webb, Damien Molony, Alannah Olivia, Rosanna Hoult, Hugh Skinner, Dinita Gohil


Trama
Londra, 1997. La scena musicale inglese sforna nomi che conquistano il successo mondiale quando il ventisettenne Steven Stelfox riesce a sfondare. Mosso da avidità, ambizione e da quantità disumane di droghe, Stelfox vive il suo sogno alla ricerca continua del prossimo disco di successo. Quando le hit diminuiranno e l'industria discografica muterà, Stelfox non esiterà a macchiarsi le mani di sangue in un disperato tentativo di salvare la propria carriera.




]]>
http://ilcorsaronero.info/tor/125429/Uccidi_i_tuoi_amici_Kill_your_friends_2015_BDRip_Xvid_AC3_ITA_CB01 http://ilcorsaronero.info/tor/125429/Uccidi_i_tuoi_amici_Kill_your_friends_2015_BDRip_Xvid_AC3_ITA_CB01 Mon, 27 Mar 2017 10:39:42 +0200
Kill your friends (2015 Ita)[DVDRip-XviD-Ac3 5.1] [BDRiP] [Seed (170)/Leech (156)] Kill your friends (2015 Ita)[DVDRip-XviD-Ac3 5.1]







.: SCHEDA :.


Regia: Owen Harris
Musica: Junkie XL
Adattato da: Kill Your Friends
Sceneggiatura: John Niven
Attori: Jim Piddock, Nicholas Hoult, Tom Riley, James Corden, Craig Roberts, Georgia King, Edward Hogg, Ed Skrein, Rosanna Arquette, Joseph Mawle, Bronson Webb, Moritz Bleibtreu, Damien Molony, Al Weaver
Genere: Commedia, thriller, crime
Durata: 100 min.
Paese: Gran Bretagna
Anno: 2015
Uscita in Italia: 20 April 2017 (DVD premiere)




.: TRAMA :.

Nella seconda metà degli anni Novanta, a Londra, la scena musicale è ricca di talenti. Anche Steven Stelfox riesce a sfondare ma, sotto influenza di droghe pesanti e mosso da avidità e ambizione, fa di tutto per riaffermarsi con un nuovo disco di successo. Quando le hit diminuiranno e l'industria discografica muterà, Stelfox non esiterà a macchiarsi le mani di sangue in un disperato tentativo di salvare la propria carriera.




SCREENSHOTS





DATI TECNICI

[ Info sul file ]
Nome: Kill your friends 2015.avi
Data: Mon, 27 Mar 2017 10:58:37 +0200
Dimensione: 1,906,208,312 bytes (1817.901909 MiB)

[ Magic ]
Tipo file: RIFF (little-endian) data, AVI, 720 x 304, 25.00 fps, video: DivX 5, audio: Dolby AC3 (6 channels, 48000 Hz)

[ Info generiche ]
Durata: 01:43:29 (6208.96 s)
Contenitore: AVI OpenDML
L'AVI ha un indice?:
Totale tracce: 2
Traccia n. 0: video
Traccia n. 1: audio
ILNG: Non definita
INAM: Kill your friends 2015
ISFT: Nandub v1.0rc2
IENG: Dorelik

[ Dati rilevanti ]
Risoluzione: 720 x 304
Larghezza: multipla di 16
Altezza: multipla di 16
DRF medio: 1.68568
Deviazione standard: 0.972753
Media pesata dev. std.: 0.77868

[ Traccia video ]
FourCC: divx/DX50
Risoluzione: 720 x 304
Frame aspect ratio: 45:19 = 2.368421 (~2.35:1)
Pixel aspect ratio: 1:1 = 1
Display aspect ratio: 45:19 = 2.368421 (~2.35:1)
Framerate: 25 fps
Totale frames: 155,224
Dimensione stream: 1,550,969,842 bytes (1479.120104 MiB)
Bitrate: 1998.363452 kbps
Qf: 0.365198
Key frames: 2,272 (0; 35; 141; 143; 393; ... 155097)
Null frames: 0
Min key int: 1
Max key int: 250
Avg key int: 68.320423
Ritardo: 0 ms

[ Traccia audio ]
Audio tag: 0x2000 (AC3)
Canali: 6
Chunks: 155,213
Dimensione stream: 347,701,760 bytes (331.594238 MiB)
Tipo di bitstream (bs): AC3
Frames (bs): 194,030
Durata: 01:43:29 (6208.96 s)
Chunk-aligned (bs):
Bitrate (bs): 448 kbps CBR
Freq. campionamento (bs): 48000 Hz
Modo (bs): 3 front, 2 rear, 1 LFE
Preload: 480 ms
Max A/V diff: 480 ms
Ritardo: 0 ms

[ Bitstream video ]
Tipo di bitstream: MPEG-4 Part 2
User data: DivX503b2816p
Packed bitstream:
QPel: No
GMC: No
Interlacciamento: No
Aspect ratio: Square pixels
Quant type: H.263
Totale frames: 155,224
Drop/delay frames: 0
Frames corrotti: 0

I-VOPs:  2272 (  1.464 %)
P-VOPs: 150608 ( 97.026 %) ###################
B-VOPs:  2344 (  1.510 %)
S-VOPs:     0 (  0.000 %)
N-VOPs:     0 (  0.000 %)

Max B-VOPs consecutivi: 1

[ Analisi DRF ]
DRF nedio: 1.68568
deviazione standard: 0.972753
max DRF: 16

DRF=1: 79420 ( 51.165 %) ##########
DRF=2: 57440 ( 37.005 %) #######
DRF=3: 12672 (  8.164 %) ##
DRF=4: 2993 (  1.928 %)
DRF=5:  671 (  0.432 %)
DRF=6: 1247 (  0.803 %)
DRF=7:   15 (  0.010 %)
DRF=8:  540 (  0.348 %)
DRF=9:  197 (  0.127 %)
DRF>9:   29 (  0.019 %)

I-VOPs DRF medio: 1.523327
I-VOPs deviazione std.: 0.745516
I-VOPs max DRF: 6

P-VOPs DRF medio: 1.616236
P-VOPs deviazione std.: 0.765068
P-VOPs max DRF: 10

B-VOPs DRF medio: 6.305034
B-VOPs deviazione std.: 1.685476
B-VOPs max DRF: 16

[ Conformità al profilo ]
Profilo selezionato: MTK PAL 6000
Risoluzione: Ok
Framerate: Ok
Min riempimento buffer: 81%

Rapporto creato da AVInaptic (18-12-2011) in data 27-03-2017 10:59:21]]>
http://ilcorsaronero.info/tor/125428/Kill_your_friends__2015_Ita__DVDRip_XviD_Ac3_5_1_ http://ilcorsaronero.info/tor/125428/Kill_your_friends__2015_Ita__DVDRip_XviD_Ac3_5_1_ Mon, 27 Mar 2017 07:18:02 +0200