* Dettagli Torrent   globale  | Commenti (0) 


- Project X - Fuga dal futuro (1987).DVDrip.Italian.English.Ac3.sub.ita.iCV-MIRCrew -


Download via torrent:
Categoria bittorrent BDRip
Descrizione
Project X - Fuga dal futuro (1987).DVDrip.Italian.English.Ac3.sub.ita.iCV-MIRCrew

[center] by www.icv-crew.org


NO FOUND ONLY ORIGINAL RELEASE



My release is always in double track audio italian and Original audio
for select it use VLC or dvd player home
not use wmp

Project X - Fuga dal futuro (1987)







   GENERE: Avventura , Fantascienza
   ANNO: 1987
   REGIA: Jonathan Kaplan
   SCENEGGIATURA: Stanley Weiser
   FOTOGRAFIA: Dean Cundey
   MONTAGGIO: Brent A. Schoenfeld, O. Nicholas Brown
   MUSICHE: James Horner
   PRODUZIONE: AMERCENT FILMS, AMERICAN ENTERTAINMENT PARTNERS L.P., PARKES/LASKER PRODUCTIONS
   PAESE: USA
   DURATA: 108 Min
   FORMATO: DELUXE



Matthew Broderick, Helen Hunt, Bill Sadler, Johnny Ray McGhee, Jonathan Stark, Robin Gammell, Stephen Lang, Jean Smart, Chuck Bennett, Daniel Roebuck, Duncan Wilmore, Irene Worth



Jimmy, un giovane pilota spaziale, viene incaricato di addestrare alcuni scimpanzé per una missione segreta. Dopo qualche tempo Jimmy si rende conto che gli scienziati del laboratorio stanno per sottoporre gli animali già in grado di effettuare voli spaziali ad alcuni test per rivelare la loro resistenza alle radiazioni atomiche. Come salvarle?



Air Force pilot Jimmy Garrett joins a top secret military experiment involving chimps, but begins to suspect there might be something more to the mysterious "Project X". ........








[spoiler]

General
Complete name                            : Project X - Fuga dal futuro (1987).ita.eng.sub.ita.iCV-MIRCrew.avi
Format                                   : AVI
Format/Info                              : Audio Video Interleave
File size                                : 1.37 GiB
Duration                                 : 1h 43mn
Overall bit rate                         : 1 898 Kbps
Movie name                               : ENCODED by.http://www.icv-crew.org
Writing application                      : VirtualDubMod 1.5.10.2 (build 2540/release)
Writing library                          : VirtualDubMod build 2540/release

Video
ID                                       : 0
Format                                   : MPEG-4 Visual
Format profile                           : Simple@L3
Format settings, BVOP                    : No
Format settings, QPel                    : No
Format settings, GMC                     : No warppoints
Format settings, Matrix                  : Default (H.263)
Codec ID                                 : XVID
Codec ID/Hint                            : XviD
Duration                                 : 1h 43mn
Bit rate                                 : 1 500 Kbps
Width                                    : 684 pixels
Height                                   : 374 pixels
Display aspect ratio                     : 16:9
Frame rate                               : 25.000 fps
Color space                              : YUV
Chroma subsampling                       : 4:2:0
Bit depth                                : 8 bits
Scan type                                : Progressive
Compression mode                         : Lossy
Bits/(Pixel*Frame)                       : 0.235
Stream size                              : 1.08 GiB (79%)
Writing library                          : XviD 64

Audio #1
ID                                       : 1
Format                                   : AC-3
Format/Info                              : Audio Coding 3
Mode extension                           : CM (complete main)
Codec ID                                 : 2000
Duration                                 : 1h 43mn
Bit rate mode                            : Constant
Bit rate                                 : 192 Kbps
Channel(s)                               : 2 channels
Channel positions                        : Front: L R
Sampling rate                            : 48.0 KHz
Bit depth                                : 16 bits
Compression mode                         : Lossy
Stream size                              : 142 MiB (10%)
Alignment                                : Split accross interleaves
Interleave, duration                     : 40 ms (1.00 video frame)
Interleave, preload duration             : 500 ms

Audio #2
ID                                       : 2
Format                                   : AC-3
Format/Info                              : Audio Coding 3
Mode extension                           : CM (complete main)
Codec ID                                 : 2000
Duration                                 : 1h 43mn
Bit rate mode                            : Constant
Bit rate                                 : 192 Kbps
Channel(s)                               : 2 channels
Channel positions                        : Front: L R
Sampling rate                            : 48.0 KHz
Bit depth                                : 16 bits
Compression mode                         : Lossy
Stream size                              : 142 MiB (10%)
Alignment                                : Split accross interleaves
Interleave, duration                     : 40 ms (1.00 video frame)
Interleave, preload duration             : 500 ms



[/spoiler]

[/center]

Info: Per scaricare devi usare un client come uTorrent o Transmission
AnnounceURL
udp://tracker.coppersurfer.tk:6969/announce
Hash ead45f0f76a14832564a57b829455a4f7136f9b9
Peers seeds: 29 , leech: 6
Size 1.37 GB
Completato 553x
Aggiunto 10.12.16 - 13:12:58
Uploader   robbyrs
Votazione (Voti: 0)


Condividi questo bittorrent:


html/blog:


bbcode/forum:




Aggiungi Commento