* Dettagli Torrent   globale  | Commenti (0) 


- L angelo della vendetta (1981).H264.Italian.English.Ac3.sub.ita.eng.iCV-MIRCrew -


Download via torrent:
Categoria bittorrent BDRip
Descrizione
Ms. 45 - L angelo della vendetta (1981).H264.Italian.English.Ac3.sub.ita.eng.iCV-MIRCrew

[center]



NO FOUND ONLY ORIGINAL RELEASE



My release is always in double track audio italian and Original audio
for select it use VLC or dvd player home
not use wmp

L'angelo della vendetta - Ms. 45 (1981)



upload





Titolo originale Ms. 45
Lingua originale inglese
Paese di produzione Stati Uniti
Anno 1981
Durata 84 min
Genere drammatico
Regia Abel Ferrara
Soggetto Nicholas St. John
Sceneggiatura Nicholas St. John
Produttore Rochelle Weisberg, Mary Kane, Richard Howorth
Casa di produzione Navaron Films
Fotografia James Lemmo
Montaggio Christopher Andrews
Musiche Joe Delia




   Zoë Lund: Thana
   Albert Sinkys: Albert
   Darlene Stuto: Laurie
   Helen McGara: Carol
   Nike Zachmanoglou: Pamela
   Jimmy Laine: primo stupratore
   Peter Yellen: ladro stupratore
   Editta Sherman: signora Nasoni
   Vincent Gruppi: rockabilly
   S. Edward Singer: fotografo
   Stanley Timms: protettore
   Faith Peters: prostituta
   Alvin Moore: detective
   Nicholas St. John: detective




Thana è una ragazza muta che lavora in una sartoria. Mentre sta tornando a casa, un uomo coperto da una calza la trascina in un vicolo e la violenta. Tornata a casa, Thana viene nuovamente violentata da un ladro. Thana questa volta reagisce e uccide l'uomo, colpendolo con un fermacarte e con un ferro da stiro, quindi trascina il cadavere in bagno..........................



A shy and mute seamstress goes insane after being attacked and raped twice in one day, in which she takes to the streets of New York after dark and randomly kills men with a .45 caliber gun.












upload


http://i.imgur.com/cWb6Z.gif




[spoiler]
General
Unique ID                                : 260446354590548174650264416883606391085 (0xC3F024B0B374B0C00FE0C5095CA1892D)
Complete name                            : L'angelo della vendetta - Ms. 45 (1981).H264.Ita.Eng.Ac3.sub.ita.eng.iCV-MIRCrew
Format                                   : Matroska
Format version                           : Version 2
File size                                : 959 MiB
Duration                                 : 1h 20mn
Overall bit rate                         : 1 659 Kbps
Movie name                               : VISIT www.icv-crew.org
Encoded date                             : UTC 2016-09-06 09:33:42
Writing application                      : Lavf54.63.100
Writing library                          : Lavf54.63.100

Video
ID                                       : 1
Format                                   : AVC
Format/Info                              : Advanced Video Codec
Format profile                           : Main@L4.1
Format settings, CABAC                   : Yes
Format settings, ReFrames                : 2 frames
Codec ID                                 : V_MPEG4/ISO/AVC
Duration                                 : 1h 20mn
Bit rate                                 : 1 270 Kbps
Width                                    : 688 pixels
Height                                   : 368 pixels
Display aspect ratio                     : 16:9
Original display aspect ratio            : 16:9
Frame rate mode                          : Variable
Frame rate                               : 23.976 fps
Color space                              : YUV
Chroma subsampling                       : 4:2:0
Bit depth                                : 8 bits
Scan type                                : Progressive
Bits/(Pixel*Frame)                       : 0.209
Stream size                              : 718 MiB (75%)
Writing library                          : x264 core 130 r2273
Encoding settings                        : cabac=1 / ref=2 / deblock=1:0:0 / analyse=0x1:0x131 / me=hex / subme=7 / psy=1 / psy_rd=1.00:0.00 / mixed_ref=0 / me_range=16 / chroma_me=1 / trellis=1 / 8x8dct=0 / cqm=0 / deadzone=21,11 / fast_pskip=1 / chroma_qp_offset=-2 / threads=12 / lookahead_threads=2 / sliced_threads=0 / nr=0 / decimate=1 / interlaced=0 / bluray_compat=0 / constrained_intra=0 / bframes=3 / b_pyramid=0 / b_adapt=1 / b_bias=0 / direct=3 / weightb=1 / open_gop=0 / weightp=2 / keyint=230 / keyint_min=23 / scenecut=40 / intra_refresh=0 / rc_lookahead=40 / rc=2pass / mbtree=1 / bitrate=1270 / ratetol=1.0 / qcomp=0.60 / qpmin=10 / qpmax=69 / qpstep=4 / cplxblur=20.0 / qblur=0.5 / vbv_maxrate=24000 / vbv_bufsize=24000 / nal_hrd=none / ip_ratio=1.40 / aq=1:1.00
Language                                 : English
Default                                  : Yes
Forced                                   : No

Audio #1
ID                                       : 2
Format                                   : AC-3
Format/Info                              : Audio Coding 3
Mode extension                           : CM (complete main)
Codec ID                                 : A_AC3
Duration                                 : 1h 20mn
Bit rate mode                            : Constant
Bit rate                                 : 192 Kbps
Channel(s)                               : 1 channel
Channel positions                        : Front: C
Sampling rate                            : 48.0 KHz
Bit depth                                : 16 bits
Compression mode                         : Lossy
Delay relative to video                  : 1mn 5s
Stream size                              : 111 MiB (12%)
Language                                 : Italian
Default                                  : Yes
Forced                                   : No

Audio #2
ID                                       : 3
Format                                   : AC-3
Format/Info                              : Audio Coding 3
Mode extension                           : CM (complete main)
Codec ID                                 : A_AC3
Duration                                 : 1h 20mn
Bit rate mode                            : Constant
Bit rate                                 : 192 Kbps
Channel(s)                               : 1 channel
Channel positions                        : Front: C
Sampling rate                            : 48.0 KHz
Bit depth                                : 16 bits
Compression mode                         : Lossy
Delay relative to video                  : 1mn 5s
Stream size                              : 111 MiB (12%)
Language                                 : English
Default                                  : No
Forced                                   : No

Text #1
ID                                       : 4
Format                                   : UTF-8
Codec ID                                 : S_TEXT/UTF8
Codec ID/Info                            : UTF-8 Plain Text
Title                                    : Italiano (Forced)
Language                                 : Italian
Default                                  : Yes
Forced                                   : Yes

Text #2
ID                                       : 5
Format                                   : UTF-8
Codec ID                                 : S_TEXT/UTF8
Codec ID/Info                            : UTF-8 Plain Text
Title                                    : Italiano
Language                                 : Italian
Default                                  : No
Forced                                   : No

Text #3
ID                                       : 6
Format                                   : UTF-8
Codec ID                                 : S_TEXT/UTF8
Codec ID/Info                            : UTF-8 Plain Text
Title                                    : English
Language                                 : English
Default                                  : No
Forced                                   : No

Menu
00:00:00.000                             : :00:00:00.000
00:12:00.803                             : :00:12:00.803
00:21:13.022                             : :00:21:13.022
00:31:26.009                             : :00:31:26.009
00:47:12.455                             : :00:47:12.455
00:57:40.874                             : :00:57:40.874
01:04:15.977                             : :01:04:15.977
01:16:51.232                             : :01:16:51.232


[/spoiler]

[/center]

Info: Per scaricare devi usare un client come uTorrent o Transmission
AnnounceURL
udp://tracker.coppersurfer.tk:6969/announce
Hash 45952065cc25f8fced0226d1d7e6ae8de3363bdb
Peers seeds: 14 , leech: 7
Size 959.47 MB
Completato 555x
Aggiunto 12.12.16 - 11:12:38
Uploader   robbyrs
Votazione (Voti: 0)


Condividi questo bittorrent:


html/blog:


bbcode/forum:




Aggiungi Commento