* Dettagli Torrent   globale  | Commenti (3) 


- Paradise Beach dentro l incubo (2016).H264.Italian.English.Ac3.5.1.sub.ita.eng.iCV-MIRCrew -


Download via torrent:
Categoria bittorrent BDRip
Descrizione
The Shallows - Paradise Beach dentro l incubo (2016).H264.Italian.English.Ac3.5.1.sub.ita.eng.iCV-MIRCrew

[center] by www.icv-crew.org


NO FOUND ONLY ORIGINAL RELEASE



My release is always in double track audio italian and Original audio
for select it use VLC or dvd player home
not use wmp

Paradise Beach Dentro L'incubo - The Shallows (2016)







   GENERE: Drammatico , Thriller
   ANNO: 2016
   REGIA: Jaume Collet-Serra
   FOTOGRAFIA: Flavio Martínez Labiano
   MONTAGGIO: Joel Negron
   MUSICHE: Marco Beltrami
   PRODUZIONE: Ombra Films, Sony Pictures Entertainment (SPE), Weimaraner Republic Pictures
   DISTRIBUZIONE: Warner Bros.
   PAESE: USA
   DURATA: 86 Min



Blake Lively, Óscar JaenadaSCENEGGIATURA: Anthony Jaswinski



Nancy sta facendo surf da sola di fronte a una spiaggia isolata quando viene attaccata da un grande squalo bianco che le impedisce di tornare a riva. Anche se solo 200 metri la separano dalla salvezza, dovrà mettere in gioco tutta la sua forza di volontà per sopravvivere.



A mere 200 yards from shore, surfer Nancy is attacked by a great white shark, with her short journey to safety becoming the ultimate contest of wills.











[spoiler]
General
Unique ID                                : 198160835229227235838689456133452172084 (0x9514637DBB83C56C69E6624CABD98B34)
Complete name                            : Paradise Beach Dentro L incubo (2016).H264.ita.eng.sub.ita.eng.iCV-MIRCrew.mkv
Format                                   : Matroska
Format version                           : Version 2
File size                                : 1.31 GiB
Duration                                 : 1h 26mn
Overall bit rate                         : 2 170 Kbps
Movie name                               : VISIT www.icv-crew.org
Encoded date                             : UTC 2016-12-10 13:26:57
Writing application                      : Lavf54.63.100
Writing library                          : Lavf54.63.100
COPYRIGHT                                : robbyrs

Video
ID                                       : 1
Format                                   : AVC
Format/Info                              : Advanced Video Codec
Format profile                           : Main@L4.1
Format settings, CABAC                   : Yes
Format settings, ReFrames                : 2 frames
Codec ID                                 : V_MPEG4/ISO/AVC
Duration                                 : 1h 26mn
Bit rate                                 : 1 270 Kbps
Width                                    : 720 pixels
Height                                   : 304 pixels
Display aspect ratio                     : 2.40:1
Frame rate mode                          : Variable
Frame rate                               : 23.976 fps
Color space                              : YUV
Chroma subsampling                       : 4:2:0
Bit depth                                : 8 bits
Scan type                                : Progressive
Bits/(Pixel*Frame)                       : 0.242
Stream size                              : 759 MiB (57%)
Writing library                          : x264 core 130 r2273
Encoding settings                        : cabac=1 / ref=2 / deblock=1:0:0 / analyse=0x1:0x131 / me=hex / subme=7 / psy=1 / psy_rd=1.00:0.00 / mixed_ref=0 / me_range=16 / chroma_me=1 / trellis=1 / 8x8dct=0 / cqm=0 / deadzone=21,11 / fast_pskip=1 / chroma_qp_offset=-2 / threads=12 / lookahead_threads=2 / sliced_threads=0 / nr=0 / decimate=1 / interlaced=0 / bluray_compat=0 / constrained_intra=0 / bframes=3 / b_pyramid=0 / b_adapt=1 / b_bias=0 / direct=3 / weightb=1 / open_gop=0 / weightp=2 / keyint=230 / keyint_min=23 / scenecut=40 / intra_refresh=0 / rc_lookahead=40 / rc=2pass / mbtree=1 / bitrate=1270 / ratetol=1.0 / qcomp=0.60 / qpmin=10 / qpmax=69 / qpstep=4 / cplxblur=20.0 / qblur=0.5 / vbv_maxrate=24000 / vbv_bufsize=24000 / nal_hrd=none / ip_ratio=1.40 / aq=1:1.00
Language                                 : English
Default                                  : Yes
Forced                                   : No
DURATION                                 : 01:26:16.088000000
NUMBER_OF_FRAMES                         : 124102
NUMBER_OF_BYTES                          : 6246110378
_STATISTICS_WRITING_APP                  : mkvmerge v8.3.0 ('Over the Horizon') 64bit
_STATISTICS_WRITING_DATE_UTC             : 2016-12-07 20:03:01
_STATISTICS_TAGS                         : BPS DURATION NUMBER_OF_FRAMES NUMBER_OF_BYTES

Audio #1
ID                                       : 2
Format                                   : AC-3
Format/Info                              : Audio Coding 3
Mode extension                           : CM (complete main)
Codec ID                                 : A_AC3
Duration                                 : 1h 26mn
Bit rate mode                            : Constant
Bit rate                                 : 448 Kbps
Channel(s)                               : 6 channels
Channel positions                        : Front: L C R, Side: L R, LFE
Sampling rate                            : 48.0 KHz
Bit depth                                : 16 bits
Compression mode                         : Lossy
Delay relative to video                  : 1mn 5s
Stream size                              : 276 MiB (21%)
Title                                    : AC3 iTA
Language                                 : Italian
Default                                  : No
Forced                                   : No
DURATION                                 : 01:26:16.192000000
NUMBER_OF_FRAMES                         : 161756
NUMBER_OF_BYTES                          : 414095360
_STATISTICS_WRITING_APP                  : mkvmerge v8.3.0 ('Over the Horizon') 64bit
_STATISTICS_WRITING_DATE_UTC             : 2016-12-07 20:03:01
_STATISTICS_TAGS                         : BPS DURATION NUMBER_OF_FRAMES NUMBER_OF_BYTES

Audio #2
ID                                       : 3
Format                                   : AC-3
Format/Info                              : Audio Coding 3
Mode extension                           : CM (complete main)
Codec ID                                 : A_AC3
Duration                                 : 1h 26mn
Bit rate mode                            : Constant
Bit rate                                 : 448 Kbps
Channel(s)                               : 6 channels
Channel positions                        : Front: L C R, Side: L R, LFE
Sampling rate                            : 48.0 KHz
Bit depth                                : 16 bits
Compression mode                         : Lossy
Delay relative to video                  : 1mn 5s
Stream size                              : 276 MiB (21%)
Title                                    : AC3 ENG
Language                                 : English
Default                                  : No
Forced                                   : No
DURATION                                 : 01:26:16.192000000
NUMBER_OF_FRAMES                         : 161756
NUMBER_OF_BYTES                          : 414095360
_STATISTICS_WRITING_APP                  : mkvmerge v8.3.0 ('Over the Horizon') 64bit
_STATISTICS_WRITING_DATE_UTC             : 2016-12-07 20:03:01
_STATISTICS_TAGS                         : BPS DURATION NUMBER_OF_FRAMES NUMBER_OF_BYTES

Text #1
ID                                       : 4
Format                                   : UTF-8
Codec ID                                 : S_TEXT/UTF8
Codec ID/Info                            : UTF-8 Plain Text
Title                                    : FORCED iTA
Language                                 : Italian
Default                                  : Yes
Forced                                   : No
DURATION                                 : 01:16:38.928000000
NUMBER_OF_FRAMES                         : 31
NUMBER_OF_BYTES                          : 686
_STATISTICS_WRITING_APP                  : mkvmerge v8.3.0 ('Over the Horizon') 64bit
_STATISTICS_WRITING_DATE_UTC             : 2016-12-07 20:03:01
_STATISTICS_TAGS                         : BPS DURATION NUMBER_OF_FRAMES NUMBER_OF_BYTES

Text #2
ID                                       : 5
Format                                   : UTF-8
Codec ID                                 : S_TEXT/UTF8
Codec ID/Info                            : UTF-8 Plain Text
Title                                    : REGULAR iTA
Language                                 : Italian
Default                                  : No
Forced                                   : No
DURATION                                 : 01:18:20.196000000
NUMBER_OF_FRAMES                         : 455
NUMBER_OF_BYTES                          : 11346
_STATISTICS_WRITING_APP                  : mkvmerge v8.3.0 ('Over the Horizon') 64bit
_STATISTICS_WRITING_DATE_UTC             : 2016-12-07 20:03:01
_STATISTICS_TAGS                         : BPS DURATION NUMBER_OF_FRAMES NUMBER_OF_BYTES

Text #3
ID                                       : 6
Format                                   : UTF-8
Codec ID                                 : S_TEXT/UTF8
Codec ID/Info                            : UTF-8 Plain Text
Title                                    : REGULAR ENG
Language                                 : English
Default                                  : No
Forced                                   : No
DURATION                                 : 01:19:46.152000000
NUMBER_OF_FRAMES                         : 568
NUMBER_OF_BYTES                          : 12407
_STATISTICS_WRITING_APP                  : mkvmerge v8.3.0 ('Over the Horizon') 64bit
_STATISTICS_WRITING_DATE_UTC             : 2016-12-07 20:03:01
_STATISTICS_TAGS                         : BPS DURATION NUMBER_OF_FRAMES NUMBER_OF_BYTES

Text #4
ID                                       : 7
Format                                   : UTF-8
Codec ID                                 : S_TEXT/UTF8
Codec ID/Info                            : UTF-8 Plain Text
Title                                    : NON UDENTI ENG
Language                                 : English
Default                                  : No
Forced                                   : No
DURATION                                 : 01:25:34.557000000
NUMBER_OF_FRAMES                         : 915
NUMBER_OF_BYTES                          : 17805
_STATISTICS_WRITING_APP                  : mkvmerge v8.3.0 ('Over the Horizon') 64bit
_STATISTICS_WRITING_DATE_UTC             : 2016-12-07 20:03:01
_STATISTICS_TAGS                         : BPS DURATION NUMBER_OF_FRAMES NUMBER_OF_BYTES

Menu
00:00:00.000                             : :00:00:00.000
00:00:54.333                             : :00:00:54.333
00:11:41.500                             : :00:11:41.500
00:18:37.458                             : :00:18:37.458
00:29:01.417                             : :00:29:01.417
00:36:01.500                             : :00:36:01.500
00:49:25.667                             : :00:49:25.667
00:57:59.750                             : :00:57:59.750
01:07:22.958                             : :01:07:22.958
01:14:02.542                             : :01:14:02.542
01:25:34.333                             : :01:25:34.333


[/spoiler]

[/center]

Info: Per scaricare devi usare un client come uTorrent o Transmission
AnnounceURL
udp://tracker.coppersurfer.tk:6969/announce
Hash e57cc934086149e69160ec28695bc82b74ad9923
Peers seeds: 250 , leech: 66
Size 1.31 GB
Completato 5903x
Aggiunto 14.12.16 - 10:12:01
Uploader   robbyrs
Votazione (Voti: 3)


Condividi questo bittorrent:


html/blog:


bbcode/forum:




Aggiungi Commento
Ultimi commenti
  
quando esce un doctor strange hd ??
15/12 07.11
  
BELLISSIMO HORROR TZX
14/12 12.18
  
ty
14/12 10.50
Tutti commenti (3)