* Dettagli Torrent   globale  | Commenti (0) 


- Billy il Koala (2015).H264.Italian.English.Ac3.5.1.sub.Ita.iCV-MIRCrew -


Download via torrent:
Categoria bittorrent BDRip
Descrizione
Blinky Bill the Movie - Billy il Koala (2015).H264.Italian.English.Ac3.5.1.sub.Ita.iCV-MIRCrew

[center]


NO FOUND ONLY ORIGINAL RELEASE



My release is always in double track audio italian and Original audio
for select it use VLC or dvd player home
not use wmp

Billy il Koala - Blinky Bill the Movie (2015)

[img]https://extraimage.net/images/2016/12/16/414ef0b50c4c051b9c3c57b0ce077cd2.png[/img]



   DATA USCITA: 31 marzo 2016
   GENERE: Animazione , Avventura , Family
   ANNO: 2015
   REGIA: Deane Taylor
   SCENEGGIATURA: Fin Edquist
   MONTAGGIO: Simon Klaebe
   MUSICHE: Dale Cornelius
   PRODUZIONE: Assemblage Entertainment, Flying Bark Productions, Telegael
   DISTRIBUZIONE: Microcinema
   PAESE: Australia, USA
   DURATA: 93 Min



******************************************



Billy è un cucciolo di koala dotato di una fervida immaginazione e di un enorme coraggio. Vuole diventare un grande avventuriero proprio come suo padre, il più grande esploratore di tutti i tempi! Quando, dopo 1 anno, il papà di Billy non torna a casa dopo una delle sue leggendarie avventure, Billy decide di lasciare la sua piccola città e partire e............



An adventurous young koala embarks on a journey across the wild and dangerous Australian outback in the hope of finding his missing father, but he soon discovers that there is more to being a hero than meets the eye.








[spoiler]
General
Unique ID                                : 52750265390460029077252977630504345764 (0x27AF54E1B47F809F580D4B131788E0A4)
Complete name                            : Billy il Koala (2015).H264.ita.eng.sub.ita.iCV-MIRCrew.mkv
Format                                   : Matroska
Format version                           : Version 2
File size                                : 1.38 GiB
Duration                                 : 1h 31mn
Overall bit rate                         : 2 157 Kbps
Movie name                               : VISIT www.icv-crew.org
Encoded date                             : UTC 2016-12-10 19:43:54
Writing application                      : Lavf54.63.100
Writing library                          : Lavf54.63.100
COPYRIGHT                                : robbyrs

Video
ID                                       : 1
Format                                   : AVC
Format/Info                              : Advanced Video Codec
Format profile                           : Main@L4.1
Format settings, CABAC                   : Yes
Format settings, ReFrames                : 2 frames
Codec ID                                 : V_MPEG4/ISO/AVC
Duration                                 : 1h 31mn
Bit rate                                 : 1 270 Kbps
Width                                    : 720 pixels
Height                                   : 404 pixels
Display aspect ratio                     : 16:9
Frame rate mode                          : Variable
Frame rate                               : 24.000 fps
Color space                              : YUV
Chroma subsampling                       : 4:2:0
Bit depth                                : 8 bits
Scan type                                : Progressive
Bits/(Pixel*Frame)                       : 0.182
Stream size                              : 798 MiB (56%)
Writing library                          : x264 core 130 r2273
Encoding settings                        : cabac=1 / ref=2 / deblock=1:0:0 / analyse=0x1:0x131 / me=hex / subme=7 / psy=1 / psy_rd=1.00:0.00 / mixed_ref=0 / me_range=16 / chroma_me=1 / trellis=1 / 8x8dct=0 / cqm=0 / deadzone=21,11 / fast_pskip=1 / chroma_qp_offset=-2 / threads=12 / lookahead_threads=2 / sliced_threads=0 / nr=0 / decimate=1 / interlaced=0 / bluray_compat=0 / constrained_intra=0 / bframes=3 / b_pyramid=0 / b_adapt=1 / b_bias=0 / direct=3 / weightb=1 / open_gop=0 / weightp=2 / keyint=240 / keyint_min=24 / scenecut=40 / intra_refresh=0 / rc_lookahead=40 / rc=2pass / mbtree=1 / bitrate=1270 / ratetol=1.0 / qcomp=0.60 / qpmin=10 / qpmax=69 / qpstep=4 / cplxblur=20.0 / qblur=0.5 / vbv_maxrate=24000 / vbv_bufsize=24000 / nal_hrd=none / ip_ratio=1.40 / aq=1:1.00
Language                                 : English
Default                                  : Yes
Forced                                   : No
DURATION                                 : 01:30:57.880000000
NUMBER_OF_FRAMES                         : 130989
NUMBER_OF_BYTES                          : 3644335529
_STATISTICS_WRITING_APP                  : mkvmerge v8.7.0 ('All of the above') 64bit
_STATISTICS_WRITING_DATE_UTC             : 2016-12-08 21:03:33
_STATISTICS_TAGS                         : BPS DURATION NUMBER_OF_FRAMES NUMBER_OF_BYTES

Audio #1
ID                                       : 2
Format                                   : AC-3
Format/Info                              : Audio Coding 3
Mode extension                           : CM (complete main)
Codec ID                                 : A_AC3
Duration                                 : 1h 31mn
Bit rate mode                            : Constant
Bit rate                                 : 448 Kbps
Channel(s)                               : 6 channels
Channel positions                        : Front: L C R, Side: L R, LFE
Sampling rate                            : 48.0 KHz
Bit depth                                : 16 bits
Compression mode                         : Lossy
Delay relative to video                  : 1mn 5s
Stream size                              : 293 MiB (21%)
Title                                    : AC3 ITA
Language                                 : Italian
Default                                  : Yes
Forced                                   : No
DURATION                                 : 01:30:57.920000000
NUMBER_OF_FRAMES                         : 170560
NUMBER_OF_BYTES                          : 305643520
_STATISTICS_WRITING_APP                  : mkvmerge v8.7.0 ('All of the above') 64bit
_STATISTICS_WRITING_DATE_UTC             : 2016-12-08 21:03:33
_STATISTICS_TAGS                         : BPS DURATION NUMBER_OF_FRAMES NUMBER_OF_BYTES

Audio #2
ID                                       : 3
Format                                   : AC-3
Format/Info                              : Audio Coding 3
Mode extension                           : CM (complete main)
Codec ID                                 : A_AC3
Duration                                 : 1h 31mn
Bit rate mode                            : Constant
Bit rate                                 : 448 Kbps
Channel(s)                               : 6 channels
Channel positions                        : Front: L C R, Side: L R, LFE
Sampling rate                            : 48.0 KHz
Bit depth                                : 16 bits
Compression mode                         : Lossy
Delay relative to video                  : 1mn 5s
Stream size                              : 293 MiB (21%)
Title                                    : AC3 ENG
Language                                 : English
Default                                  : No
Forced                                   : No
DURATION                                 : 01:30:57.920000000
NUMBER_OF_FRAMES                         : 170560
NUMBER_OF_BYTES                          : 436633600
_STATISTICS_WRITING_APP                  : mkvmerge v8.7.0 ('All of the above') 64bit
_STATISTICS_WRITING_DATE_UTC             : 2016-12-08 21:03:33
_STATISTICS_TAGS                         : BPS DURATION NUMBER_OF_FRAMES NUMBER_OF_BYTES

Text #1
ID                                       : 4
Format                                   : UTF-8
Codec ID                                 : S_TEXT/UTF8
Codec ID/Info                            : UTF-8 Plain Text
Title                                    : Forced
Language                                 : Italian
Default                                  : Yes
Forced                                   : No
DURATION                                 : 00:00:25.052000000
NUMBER_OF_FRAMES                         : 2
NUMBER_OF_BYTES                          : 45
_STATISTICS_WRITING_APP                  : mkvmerge v8.7.0 ('All of the above') 64bit
_STATISTICS_WRITING_DATE_UTC             : 2016-12-08 21:03:33
_STATISTICS_TAGS                         : BPS DURATION NUMBER_OF_FRAMES NUMBER_OF_BYTES

Text #2
ID                                       : 5
Format                                   : UTF-8
Codec ID                                 : S_TEXT/UTF8
Codec ID/Info                            : UTF-8 Plain Text
Title                                    : Regular
Language                                 : Italian
Default                                  : No
Forced                                   : No
DURATION                                 : 01:30:24.880000000
NUMBER_OF_FRAMES                         : 1195
NUMBER_OF_BYTES                          : 45405
_STATISTICS_WRITING_APP                  : mkvmerge v8.7.0 ('All of the above') 64bit
_STATISTICS_WRITING_DATE_UTC             : 2016-12-08 21:03:33
_STATISTICS_TAGS                         : BPS DURATION NUMBER_OF_FRAMES NUMBER_OF_BYTES

Menu
00:00:00.000                             : :00:00:00.000
00:07:05.342                             : :00:07:05.342
00:14:28.201                             : :00:14:28.201
00:20:13.838                             : :00:20:13.838
00:29:27.099                             : :00:29:27.099
00:39:02.590                             : :00:39:02.590
00:50:56.804                             : :00:50:56.804
00:59:52.756                             : :00:59:52.756
01:08:53.129                             : :01:08:53.129
01:16:19.950                             : :01:16:19.950
01:23:27.706                             : :01:23:27.706



[/spoiler]

[/center]

Info: Per scaricare devi usare un client come uTorrent, o Azureus
AnnounceURL
udp://tracker.coppersurfer.tk:6969/announce
Hash d37b47b385da64eb9c6e5666f7137d6ca7d1b005
Peers seeds: 83 , leech: 8
Size 1.38 GB
Completato 1592x
Aggiunto 16.12.16 - 08:12:19
Uploader   robbyrs
Votazione (Voti: 2)


Condividi questo bittorrent:


html/blog:


bbcode/forum:




Aggiungi Commento