* Dettagli Torrent   globale  | Commenti (0) 


- Messi - Storia di un campione (2014).H264.Italian.Spanish.Ac3.5.1.sub.Ita.iCV-MIRCrew -


Download via torrent:
Categoria bittorrent BDRip
Descrizione
Messi - Storia di un campione (2014).H264.Italian.Spanish.Ac3.5.1.sub.Ita.iCV-MIRCrew

[center]



NO FOUND ONLY ORIGINAL RELEASE



My release is always in double track audio italian and Original audio
for select it use VLC or dvd player home
not use wmp

Messi - Storia di un campione (2014)







Genere: Documentario
Durata: 93 minuti
Regista: Álex de la Iglesia



*********************************



A metà strada da documentario e fiction, il film che narra la storia romanzata dell'infanzia difficile di Lionel Messi, il campione del Barcellona che ha sconfitto la malattia ed è entrato nell'Olimpo del calcio mondiale. Riuniti nello stesso ristorante, calciatori, professori, allenatori, amici, giornalisti, scrittori e personaggi della storia del calcio



Lionel Messi from early life to international stardom.








[spoiler]
General
Unique ID                                : 193494290940221640920024968935975093759 (0x9191A51819664A48ACCF9DEBEB9705FF)
Complete name                            : Messi (2014).Ita.Spa.sub.ita.iCV-MIRCrew.mkv
Format                                   : Matroska
Format version                           : Version 2
File size                                : 1.43 GiB
Duration                                 : 1h 33mn
Overall bit rate                         : 2 179 Kbps
Movie name                               : MESSI.Title1
Encoded date                             : UTC 2016-12-16 10:17:54
Writing application                      : DVDFab 9.1.5.7
Writing library                          : libebml v0.7.8 + libmatroska v0.8.1

Video
ID                                       : 1
Format                                   : AVC
Format/Info                              : Advanced Video Codec
Format profile                           : High@L4.1
Format settings, CABAC                   : Yes
Format settings, ReFrames                : 2 frames
Codec ID                                 : V_MPEG4/ISO/AVC
Duration                                 : 1h 33mn
Bit rate                                 : 1 240 Kbps
Width                                    : 720 pixels
Height                                   : 320 pixels
Display aspect ratio                     : 2.25:1
Frame rate                               : 25.000 fps
Color space                              : YUV
Chroma subsampling                       : 4:2:0
Bit depth                                : 8 bits
Scan type                                : Progressive
Bits/(Pixel*Frame)                       : 0.215
Stream size                              : 832 MiB (57%)
Writing library                          : x264 core
Default                                  : Yes
Forced                                   : No
Color primaries                          : BT.601-6 525, BT.1358 525, BT.1700 NTSC, SMPTE 170M
Transfer characteristics                 : BT.709-5, BT.1361
Matrix coefficients                      : BT.601-6 525, BT.1358 525, BT.1700 NTSC, SMPTE 170M

Audio #1
ID                                       : 2
Format                                   : AC-3
Format/Info                              : Audio Coding 3
Mode extension                           : CM (complete main)
Codec ID                                 : A_AC3
Duration                                 : 1h 33mn
Bit rate mode                            : Constant
Bit rate                                 : 448 Kbps
Channel(s)                               : 6 channels
Channel positions                        : Front: L C R, Side: L R, LFE
Sampling rate                            : 48.0 KHz
Bit depth                                : 16 bits
Compression mode                         : Lossy
Stream size                              : 301 MiB (21%)
Language                                 : Italian
Default                                  : Yes
Forced                                   : No

Audio #2
ID                                       : 3
Format                                   : AC-3
Format/Info                              : Audio Coding 3
Mode extension                           : CM (complete main)
Codec ID                                 : A_AC3
Duration                                 : 1h 33mn
Bit rate mode                            : Constant
Bit rate                                 : 448 Kbps
Channel(s)                               : 6 channels
Channel positions                        : Front: L C R, Side: L R, LFE
Sampling rate                            : 48.0 KHz
Bit depth                                : 16 bits
Compression mode                         : Lossy
Stream size                              : 301 MiB (21%)
Language                                 : Spanish
Default                                  : No
Forced                                   : No

Text
ID                                       : 4
Format                                   : VobSub
Codec ID                                 : S_VOBSUB
Codec ID/Info                            : The same subtitle format used on DVDs
Language                                 : Italian
Default                                  : Yes
Forced                                   : No

Menu
00:00:00.000                             : en01)00:00:00:000
00:09:08.360                             : en02)00:09:08:360
00:15:44.400                             : en03)00:15:44:400
00:25:32.360                             : en04)00:25:32:360
00:31:37.480                             : en05)00:31:37:480
00:39:37.920                             : en06)00:39:37:920
00:46:09.160                             : en07)00:46:09:160
00:55:14.600                             : en000:55:14:600
01:03:23.640                             : en09)01:03:23:640
01:13:40.560                             : en10)01:13:40:560
01:20:23.800                             : en11)01:20:23:800
01:31:17.160                             : en12)01:31:17:160


[/spoiler]

[/center]

Info: Per scaricare devi usare un client come uTorrent o Transmission
AnnounceURL
udp://tracker.coppersurfer.tk:6969/announce
Hash 9e099e5449e35f5ca645771006c37da4493cadc7
Peers seeds: 105 , leech: 15
Size 1.43 GB
Completato 2075x
Aggiunto 16.12.16 - 12:12:35
Uploader   robbyrs
Votazione (Voti: 0)


Condividi questo bittorrent:


html/blog:


bbcode/forum:




Aggiungi Commento