* Dettagli Torrent   globale  | Commenti (0) 


- Minority Report (2002).H264.Italian.English.Ac3.5.1.sub.ita.eng.iCV-MIRCrew -


Download via torrent:
Categoria bittorrent BDRip
Descrizione
Minority Report (2002).H264.Italian.English.Ac3.5.1.sub.ita.eng.iCV-MIRCrew

[center]by www.icv-crew.org



NO FOUND ONLY ORIGINAL RELEASE



My release is always in double track audio italian and Original audio
for select it use VLC or dvd player home
not use wmp

Minority Report (2002)







Titolo originale Minority Report
Paese di produzione Stati Uniti d'America
Anno 2002
Durata 146 min
Rapporto 2,40:1
Genere fantascienza
Regia Steven Spielberg
Soggetto dall'omonimo racconto di Philip K. Dick
Sceneggiatura Scott Frank, Jon Cohen
Produttore Jan de Bont, Gerald R. Molen, Walter F. Parkes, Bonnie Curtis
Produttore esecutivo Michael Doven, Gary Goldman, Ronald Shusett, Sergio Mimica-Gezzan
Casa di produzione Twentieth Century Fox, DreamWorks SKG, Cruise/Wagner Productions, Blue Tulip Productions, Blue Tulip Productions, Amblin Entertainment
Distribuzione (Italia) Twentieth Century Fox
Fotografia Janusz Kaminski
Montaggio Michael Kahn
Effetti speciali Industrial Light & Magic
Musiche John Williams
Scenografia Anne Kuljian




   Tom Cruise: Detective John Anderton
   Colin Farrell: Detective Danny Witwer
   Samantha Morton: Agatha
   Max von Sydow: Direttore Lamar Burgess
   Patrick Kilpatrick: Ufficiale Knott
   Lois Smith: Iris Hineman
   Peter Stormare: Dr. Solomon Eddie
   Tim Blake Nelson: Gideon
   Steve J. Harris: Jad
   Kathryn Morris: Lara Anderton
   Mike Binder: Leo F. Crow
   Neal McDonough: Fletcher
   Daniel London: Wally




Nel 2054 la città di Washington ha cancellato gli omicidi da ormai 6 anni grazie a un sistema chiamato Precrimine. Basandosi sulle premonizioni di tre individui dotati di poteri extrasensoriali di precognizione amplificati, detti Precog, la polizia riesce a impedire gli omicidi prima che essi avvengano e ad arrestare i potenziali "colpevoli". In questo modo non viene punito il fatto (che non avviene), bensì l'intenzione di compierlo e che porterebbe a concretizzarlo: è un sistema delicato, osteggiato da molti, che però sembra funzionare senza intoppi.



In a future where a special police unit is able to arrest murderers before they commit their crimes, an officer from that unit is himself accused of a future murder.










[spoiler]
General
Unique ID                                : 261192316747753230957747462400523622603 (0xC47FCF76D28EF263B4BEBB1D1FBFD8CB)
Complete name                            : Minority Report (2002).H264.ita.eng.sub.ita.eng.iCV-MIRCrew.mkv
Format                                   : Matroska
Format version                           : Version 2
File size                                : 2.21 GiB
Duration                                 : 2h 25mn
Overall bit rate                         : 2 181 Kbps
Movie name                               : Minority Report (2002)
Encoded date                             : UTC 2016-12-12T21:32:27Z
Writing application                      : HandBrake 0.10.5 2016021100
Writing library                          : Lavf55.12.0

Video
ID                                       : 1
Format                                   : AVC
Format/Info                              : Advanced Video Codec
Format profile                           : Main@L4.0
Format settings, CABAC                   : Yes
Format settings, ReFrames                : 4 frames
Codec ID                                 : V_MPEG4/ISO/AVC
Duration                                 : 2h 25mn
Bit rate                                 : 1 280 Kbps
Width                                    : 688 pixels
Height                                   : 288 pixels
Display aspect ratio                     : 2.40:1
Original display aspect ratio            : 2.40:1
Frame rate mode                          : Variable
Frame rate                               : 23.976 fps
Color space                              : YUV
Chroma subsampling                       : 4:2:0
Bit depth                                : 8 bits
Scan type                                : Progressive
Bits/(Pixel*Frame)                       : 0.269
Stream size                              : 1.26 GiB (57%)
Writing library                          : x264 core 142 r2479 dd79a61
Encoding settings                        : cabac=1 / ref=1 / deblock=1:0:0 / analyse=0x1:0x111 / me=hex / subme=2 / psy=1 / psy_rd=1.00:0.00 / mixed_ref=0 / me_range=16 / chroma_me=1 / trellis=0 / 8x8dct=0 / cqm=0 / deadzone=21,11 / fast_pskip=1 / chroma_qp_offset=0 / threads=3 / lookahead_threads=1 / sliced_threads=0 / nr=0 / decimate=1 / interlaced=0 / bluray_compat=0 / constrained_intra=0 / bframes=3 / b_pyramid=2 / b_adapt=1 / b_bias=0 / direct=1 / weightb=1 / open_gop=0 / weightp=1 / keyint=240 / keyint_min=24 / scenecut=40 / intra_refresh=0 / rc_lookahead=10 / rc=2pass / mbtree=1 / bitrate=1280 / ratetol=1.0 / qcomp=0.60 / qpmin=0 / qpmax=69 / qpstep=4 / cplxblur=20.0 / qblur=0.5 / vbv_maxrate=20000 / vbv_bufsize=25000 / nal_hrd=none / filler=0 / ip_ratio=1.40 / aq=1:1.00
Default                                  : Yes
Forced                                   : No
Color primaries                          : BT.709-5, BT.1361, IEC 61966-2-4, SMPTE RP177
Transfer characteristics                 : BT.709-5, BT.1361
Matrix coefficients                      : BT.709-5, BT.1361, IEC 61966-2-4 709, SMPTE RP177

Audio #1
ID                                       : 2
Format                                   : AC-3
Format/Info                              : Audio Coding 3
Mode extension                           : CM (complete main)
Codec ID                                 : A_AC3
Duration                                 : 2h 25mn
Bit rate mode                            : Constant
Bit rate                                 : 448 Kbps
Channel(s)                               : 6 channels
Channel positions                        : Front: L C R, Side: L R, LFE
Sampling rate                            : 48.0 KHz
Bit depth                                : 16 bits
Compression mode                         : Lossy
Delay relative to video                  : 1mn 5s
Stream size                              : 465 MiB (21%)
Language                                 : Italian
Default                                  : Yes

Audio #2
ID                                       : 3
Format                                   : AC-3
Format/Info                              : Audio Coding 3
Mode extension                           : CM (complete main)
Codec ID                                 : A_AC3
Duration                                 : 2h 25mn
Bit rate mode                            : Constant
Bit rate                                 : 448 Kbps
Channel(s)                               : 6 channels
Channel positions                        : Front: L C R, Side: L R, LFE
Sampling rate                            : 48.0 KHz
Bit depth                                : 16 bits
Compression mode                         : Lossy
Delay relative to video                  : 1mn 5s
Stream size                              : 465 MiB (21%)
Title                                    : Surround
Language                                 : English
Default                                  : No


Text #1
ID                                       : 4
Format                                   : ASS
Codec ID                                 : S_TEXT/ASS
Codec ID/Info                            : Advanced Sub Station Alpha
Compression mode                         : Lossless
Language                                 : Italian
Default                                  : No
Forced                                   : No

Text #2
ID                                       : 5
Format                                   : ASS
Codec ID                                 : S_TEXT/ASS
Codec ID/Info                            : Advanced Sub Station Alpha
Compression mode                         : Lossless
Language                                 : Italian
Default                                  : No
Forced                                   : No

Text #3
ID                                       : 6
Format                                   : ASS
Codec ID                                 : S_TEXT/ASS
Codec ID/Info                            : Advanced Sub Station Alpha
Compression mode                         : Lossless
Language                                 : English
Default                                  : No
Forced                                   : No

Menu
00:00:00.000                             : :00:00:00.000
00:06:47.156                             : :00:06:47.073
00:14:50.264                             : :00:14:49.889
00:21:13.146                             : :00:21:13.022
00:24:43.774                             : :00:24:43.691
00:29:46.117                             : :00:29:46.034
00:37:09.602                             : :00:37:09.519
00:42:42.560                             : :00:42:42.477
00:51:42.057                             : :00:51:41.974
00:55:18.690                             : :00:55:18.607
00:59:57.468                             : :00:59:57.385
01:04:04.674                             : :01:04:04.591
01:09:42.011                             : :01:09:41.928
01:17:00.824                             : :01:17:00.658
01:22:21.645                             : :01:22:21.562
01:27:57.981                             : :01:27:57.898
01:35:42.528                             : :01:35:42.445
01:39:08.859                             : :01:39:08.776
01:49:06.289                             : :01:49:06.206
01:54:02.085                             : :01:54:02.002
02:01:28.781                             : :02:01:28.531
02:06:43.179                             : :02:06:43.095
02:13:11.900                             : :02:13:11.817
02:15:40.716                             : :02:15:40.632


[/spoiler]

[/center]

Info: Per scaricare devi usare un client come uTorrent o Transmission
AnnounceURL
udp://tracker.coppersurfer.tk:6969/announce
Hash ebc1339f7b7ea76f2e421b797dea2fd7cfe8e572
Peers seeds: 44 , leech: 11
Size 2.21 GB
Completato 655x
Aggiunto 18.12.16 - 11:12:10
Uploader   robbyrs
Votazione (Voti: 0)


Condividi questo bittorrent:


html/blog:


bbcode/forum:




Aggiungi Commento