* Dettagli Torrent   globale  | Commenti (0) 


- Dressed to Kill - Vestito per uccidere - Unrated (1980).H264 Italian.English.Ac3.Multisub.iCV-MIRCre -


Download via torrent:
Categoria bittorrent BDRip
Descrizione
Dressed to Kill - Vestito per uccidere - Unrated (1980).H264 Italian.English.Ac3.Multisub.iCV-MIRCrew

[center]by www.icv-crew.org


NO FOUND ONLY ORIGINAL RELEASE



My release is always in double track audio italian and Original audio
for select it use VLC or dvd player home
not use wmp

Vestito per uccidere - Dressed to Kill - Unrated (1980)







Premi

   Saturn Awards 1981: miglior attrice (Angie Dickinson)


Titolo originale Dressed to Kill
Paese di produzione Stati Uniti
Anno 1980
Durata 105 min
Genere thriller
Regia Brian De Palma
Soggetto Brian De Palma
Sceneggiatura Brian De Palma
Produttore George Litto
Fotografia Ralf Bode
Montaggio Jerry Greenberg
Musiche Pino Donaggio
Scenografia Gary Brink
Costumi Gary Jones, Ann Roth
Trucco Joseph Cranzano, Tony Lloyd (per Michael Caine)




   Michael Caine: Dr. Robert Elliott/Bobbi
   Angie Dickinson: Kate Miller
   Keith Gordon: Peter Miller
   Nancy Allen: Liz Blake
   Dennis Franz: Detective Marino
   David Margulies: Dr. Levy




Kate Miller è una casalinga sessualmente frustrata in terapia presso lo psichiatra newyorkese Robert Elliott. Durante una seduta presso lo studio del dottore, Kate tenta di sedurlo, ma Elliott rifiuta la sua proposta. Più tardi la donna si reca ad una mostra al Metropolitan e viene intensamente attratta da un misterioso straniero anch'egli in visita al museo



A mysterious blonde woman kills one of a psychiatrist's patients, and then goes after the high-class call girl who witnessed the murder.










[spoiler]
General
Unique ID                                : 197336379239380833967780589565710242918 (0x94759AAC28339C99BC9ACF5E08E51466)
Complete name                            : Vestito per uccidere - Dressed to Kill - Unrated (1980).H264.ita.eng.iCV-MIRCrew.mkv
Format                                   : Matroska
Format version                           : Version 2
File size                                : 1.32 GiB
Duration                                 : 1h 45mn
Overall bit rate                         : 1 799 Kbps
Encoded date                             : UTC 2016-12-18T16:19:09Z
Writing application                      : mkvmerge v5.4.0 ('Piper') built on Mar 10 2012 13:34:39
Writing library                          : Lavf55.12.0

Video
ID                                       : 1
Format                                   : AVC
Format/Info                              : Advanced Video Codec
Format profile                           : Main@L4.0
Format settings, CABAC                   : Yes
Format settings, ReFrames                : 4 frames
Muxing mode                              : Header stripping
Codec ID                                 : V_MPEG4/ISO/AVC
Duration                                 : 1h 45mn
Bit rate                                 : 1 270 Kbps
Width                                    : 720 pixels
Height                                   : 306 pixels
Display aspect ratio                     : 2.35:1
Frame rate mode                          : Variable
Frame rate                               : 23.976 fps
Color space                              : YUV
Chroma subsampling                       : 4:2:0
Bit depth                                : 8 bits
Scan type                                : Progressive
Bits/(Pixel*Frame)                       : 0.240
Stream size                              : 941 MiB (70%)
Writing library                          : x264 core 142 r2479 dd79a61
Encoding settings                        : cabac=1 / ref=1 / deblock=1:0:0 / analyse=0x1:0x111 / me=hex / subme=2 / psy=1 / psy_rd=1.00:0.00 / mixed_ref=0 / me_range=16 / chroma_me=1 / trellis=0 / 8x8dct=0 / cqm=0 / deadzone=21,11 / fast_pskip=1 / chroma_qp_offset=0 / threads=3 / lookahead_threads=1 / sliced_threads=0 / nr=0 / decimate=1 / interlaced=0 / bluray_compat=0 / constrained_intra=0 / bframes=3 / b_pyramid=2 / b_adapt=1 / b_bias=0 / direct=1 / weightb=1 / open_gop=0 / weightp=1 / keyint=240 / keyint_min=24 / scenecut=40 / intra_refresh=0 / rc_lookahead=10 / rc=abr / mbtree=1 / bitrate=1270 / ratetol=1.0 / qcomp=0.60 / qpmin=0 / qpmax=69 / qpstep=4 / vbv_maxrate=20000 / vbv_bufsize=25000 / nal_hrd=none / filler=0 / ip_ratio=1.40 / aq=1:1.00
Default                                  : Yes
Forced                                   : No
Color primaries                          : BT.709-5, BT.1361, IEC 61966-2-4, SMPTE RP177
Transfer characteristics                 : BT.709-5, BT.1361
Matrix coefficients                      : BT.709-5, BT.1361, IEC 61966-2-4 709, SMPTE RP177

Audio #1
ID                                       : 2
Format                                   : AC-3
Format/Info                              : Audio Coding 3
Mode extension                           : CM (complete main)
Muxing mode                              : Header stripping
Codec ID                                 : A_AC3
Duration                                 : 1h 45mn
Bit rate mode                            : Constant
Bit rate                                 : 256 Kbps
Channel(s)                               : 2 channels
Channel positions                        : Front: L R
Sampling rate                            : 48.0 KHz
Bit depth                                : 16 bits
Compression mode                         : Lossy
Delay relative to video                  : -5ms
Stream size                              : 192 MiB (14%)
Title                                    : Stereo
Language                                 : Italian
Default                                  : No
Forced                                   : No

Audio #2
ID                                       : 3
Format                                   : AC-3
Format/Info                              : Audio Coding 3
Mode extension                           : CM (complete main)
Muxing mode                              : Header stripping
Codec ID                                 : A_AC3
Duration                                 : 1h 45mn
Bit rate mode                            : Constant
Bit rate                                 : 256 Kbps
Channel(s)                               : 2 channels
Channel positions                        : Front: L R
Sampling rate                            : 48.0 KHz
Bit depth                                : 16 bits
Compression mode                         : Lossy
Delay relative to video                  : -5ms
Stream size                              : 192 MiB (14%)
Title                                    : Stereo
Language                                 : English
Default                                  : Yes
Forced                                   : No

Text #1
ID                                       : 4
Format                                   : VobSub
Muxing mode                              : zlib
Codec ID                                 : S_VOBSUB
Codec ID/Info                            : The same subtitle format used on DVDs
Language                                 : English
Default                                  : No
Forced                                   : No

Text #2
ID                                       : 5
Format                                   : VobSub
Muxing mode                              : zlib
Codec ID                                 : S_VOBSUB
Codec ID/Info                            : The same subtitle format used on DVDs
Language                                 : Spanish
Default                                  : No
Forced                                   : No

Text #3
ID                                       : 6
Format                                   : VobSub
Muxing mode                              : zlib
Codec ID                                 : S_VOBSUB
Codec ID/Info                            : The same subtitle format used on DVDs
Language                                 : French
Default                                  : No
Forced                                   : No



[/spoiler]

[/color]
[/center]

Info: Per scaricare devi usare un client come uTorrent o Transmission
AnnounceURL
udp://tracker.coppersurfer.tk:6969/announce
Hash 9168bab0de51cb6fc393c79e2b3b5cfed938ad39
Peers seeds: 25 , leech: 3
Size 1.32 GB
Completato 442x
Aggiunto 20.12.16 - 08:12:56
Uploader   robbyrs
Votazione (Voti: 1)


Condividi questo bittorrent:


html/blog:


bbcode/forum:




Aggiungi Commento