* Dettagli Torrent   globale  | Commenti (2) 


- Mystic Game - Misticheskaya Komediya (2016).H264 Italian.English.Ac3.5.1.sub.eng.iCV-MIRCrew -


Download via torrent:
Categoria bittorrent BDRip
Descrizione
Mystic Game - Misticheskaya Komediya (2016).H264 Italian.English.Ac3.5.1.sub.eng.iCV-MIRCrew

[center]by www.icv-crew.org


NO FOUND ONLY ORIGINAL RELEASE



My release is always in double track audio italian and Original audio
for select it use VLC or dvd player home
not use wmp

Mystic Game - Misticheskaya Komediya (2016)







Titolo Originale:    Misticheskaya Komediya
Paese:   Russia
Anno:    2016
Durata:   90 Min
Genere:  Avventura, Fantasy
Regia: Artyom Aksenenko
Sceneggiatura:  Vyacheslav Lisnevskiy



Sergey Burunov, Svetlana Golovina, Ekaterina Kabak, Kirill Kozakov, Semyon Lopatin, Andrey Perunov, Alexander Petrov, Diana Pozharskaya, Yuliya Sules, Veronika Vernadskaya, Aleksey Voronin, Denis Yasik.



Alex è un adolescente in cerca del suo posto del mondo. Un giorno, pur essendo scettico in materia, si ritrova a partecipare ad un programma di magia al posto di un concorrente ritiratosi dopo esser caduto in un misterioso stato di trance. Durante il programma però succede qualcosa di inaspettato: una forza occulta si impossessa di Alex che inconsapevolmente compie un antico maleficio ai danni di Tanya, una ragazza presente in sala.



A charming adventurer got dragged in the struggle of powerful wizards. To save himself and his beloved he is forced to find a way out of this mystic game.










[spoiler]
General
Unique ID                                : 86858468631714155603727858492013895142 (0x415855230E07413A066D936E24A95DE6)
Complete name                            : Mystic Game (2016).H264.ita.rus.sub.ita.iCV-MIRCrew.mkv
Format                                   : Matroska
Format version                           : Version 2
File size                                : 1.08 GiB
Duration                                 : 1h 20mn
Overall bit rate                         : 1 939 Kbps
Encoded date                             : UTC 2016-12-20T14:30:04Z
Writing application                      : HandBrake 0.10.5 2016021100
Writing library                          : Lavf55.12.0

Video
ID                                       : 1
Format                                   : AVC
Format/Info                              : Advanced Video Codec
Format profile                           : Main@L4.0
Format settings, CABAC                   : Yes
Format settings, ReFrames                : 4 frames
Codec ID                                 : V_MPEG4/ISO/AVC
Duration                                 : 1h 20mn
Bit rate                                 : 1 280 Kbps
Width                                    : 720 pixels
Height                                   : 404 pixels
Display aspect ratio                     : 16:9
Original display aspect ratio            : 16:9
Frame rate mode                          : Variable / Variable
Frame rate                               : 25.000 fps
Color space                              : YUV
Chroma subsampling                       : 4:2:0
Bit depth                                : 8 bits
Scan type                                : Progressive
Bits/(Pixel*Frame)                       : 0.176
Stream size                              : 721 MiB (65%)
Writing library                          : x264 core 142 r2479 dd79a61
Encoding settings                        : cabac=1 / ref=1 / deblock=1:0:0 / analyse=0x1:0x111 / me=hex / subme=2 / psy=1 / psy_rd=1.00:0.00 / mixed_ref=0 / me_range=16 / chroma_me=1 / trellis=0 / 8x8dct=0 / cqm=0 / deadzone=21,11 / fast_pskip=1 / chroma_qp_offset=0 / threads=12 / lookahead_threads=3 / sliced_threads=0 / nr=0 / decimate=1 / interlaced=0 / bluray_compat=0 / constrained_intra=0 / bframes=3 / b_pyramid=2 / b_adapt=1 / b_bias=0 / direct=1 / weightb=1 / open_gop=0 / weightp=1 / keyint=250 / keyint_min=25 / scenecut=40 / intra_refresh=0 / rc_lookahead=10 / rc=abr / mbtree=1 / bitrate=1280 / ratetol=1.0 / qcomp=0.60 / qpmin=0 / qpmax=69 / qpstep=4 / vbv_maxrate=20000 / vbv_bufsize=25000 / nal_hrd=none / filler=0 / ip_ratio=1.40 / aq=1:1.00
Default                                  : Yes
Forced                                   : No
Color primaries                          : BT.709-5, BT.1361, IEC 61966-2-4, SMPTE RP177
Transfer characteristics                 : BT.709-5, BT.1361
Matrix coefficients                      : BT.709-5, BT.1361, IEC 61966-2-4 709, SMPTE RP177

Audio #1
ID                                       : 2
Format                                   : AC-3
Format/Info                              : Audio Coding 3
Mode extension                           : CM (complete main)
Codec ID                                 : A_AC3
Duration                                 : 1h 20mn
Bit rate mode                            : Constant
Bit rate                                 : 448 Kbps
Channel(s)                               : 6 channels
Channel positions                        : Front: L C R, Side: L R, LFE
Sampling rate                            : 48.0 KHz
Bit depth                                : 16 bits
Compression mode                         : Lossy
Delay relative to video                  : 1mn 5s
Stream size                              : 256 MiB (23%)
Title                                    : Surround
Language                                 : Italian
Default                                  : Yes
Forced                                   : No

Audio #2
ID                                       : 3
Format                                   : AC-3
Format/Info                              : Audio Coding 3
Mode extension                           : CM (complete main)
Codec ID                                 : A_AC3
Duration                                 : 1h 20mn
Bit rate mode                            : Constant
Bit rate                                 : 192 Kbps
Channel(s)                               : 2 channels
Channel positions                        : Front: L R
Sampling rate                            : 48.0 KHz
Bit depth                                : 16 bits
Compression mode                         : Lossy
Delay relative to video                  : 1mn 5s
Stream size                              : 110 MiB (10%)
Title                                    : Stereo
Language                                 : Russian
Default                                  : No
Forced                                   : No

Text #1
ID                                       : 4
Format                                   : PGS
Codec ID                                 : S_HDMV/PGS
Codec ID/Info                            : The same subtitle format used on BDs/HD-DVDs
Language                                 : Italian
Default                                  : No
Forced                                   : No

Text #2
ID                                       : 5
Format                                   : PGS
Codec ID                                 : S_HDMV/PGS
Codec ID/Info                            : The same subtitle format used on BDs/HD-DVDs
Language                                 : Italian
Default                                  : No
Forced                                   : No

Menu
00:00:00.000                             : :Chapter 1
00:06:49.834                             : :Chapter 2
00:13:57.674                             : :Chapter 3
00:20:40.914                             : :Chapter 4
00:28:13.634                             : :Chapter 5
00:35:37.994                             : :Chapter 6
00:42:11.794                             : :Chapter 7
00:48:49.674                             : :Chapter 8
00:55:03.754                             : :Chapter 9
01:01:43.274                             : :Chapter 10
01:10:00.634                             : :Chapter 11
01:16:18.194                             : :Chapter 12




[/spoiler]

[/center]

Info: Per scaricare devi usare un client come uTorrent o Transmission
AnnounceURL
udp://tracker.coppersurfer.tk:6969/announce
Hash 68812ef16bfe891f39c952244e8053c29e8e7837
Peers seeds: 152 , leech: 34
Size 1.08 GB
Completato 1945x
Aggiunto 21.12.16 - 09:12:05
Uploader   robbyrs
Votazione (Voti: 1)


Condividi questo bittorrent:


html/blog:


bbcode/forum:




Aggiungi Commento
Ultimi commenti
 archangelo12archangelo12   
robbyrs sei un grande

elogio rivolto anche agli altri che condividono film inserendo la locandina del film e vari screenshot

siete grandi perche un somaro come me alle volte sfugge il genere di film e grazie a voi, ricordo il trailer visto in tv

continuate cosi (Y)
22/12 17.47
  
reputo (reputavo) ilcorsronero il miglior sito attendibile per torrent da un po' di tempo si sta popolando di gente che carica film inesatti (trailer ripetuto per 1ora e mezza, titoli dei film inesatti es. sono cam TS internal e scrivono MD 720p, file rubati da altra gente cambiando titoli e ricaricati, per questo scarico solo i tuoi torrent sono attendibili al 100% con titoli esatti, volevo chiederti tu hai un tuo sito, così mi iscrivo e scarico solo i tuoi torrent, ps ho risolto con l'audio solo sul pc alla tv ancora no. grazie buona giornata
21/12 12.13
Tutti commenti (2)