* Dettagli Torrent   globale  | Commenti (2) 


- Martian Land (2015).H264 Italian.English.Ac3.5.1.iCV-MIRCrew -


Download via torrent:
Categoria bittorrent BDRip
Descrizione
Martian Land (2015).H264 Italian.English.Ac3.5.1.iCV-MIRCrew

[center]by  www.icv-crew.org


NO FOUND ONLY ORIGINAL RELEASE



My release is always in double track audio italian and Original audio
for select it use VLC or dvd player home
not use wmp

Martian Land (2015)







TITOLO ORIGINALE: Martian Land
DATA USCITA: 6 October 2015 (USA)
GENERE: Action, Adventure, Fantascienza
ANNO: 2015
PAESE: USA
DURATA: 85 Min
REGIA: Scott Wheeler
PRODUZIONE: Asylum
DISTRIBUZIONE:Asylum, Gaiam



Lane Townsend, Alan Pietruszewski, Jennifer Dorogi, Arianna Afsar, Chloe Farnworth, Chaim Dunbar ...



Nel futuro, la razza umana si è trasferita su Marte, e vive in città simili a quelle terrestri, ma protette da enormi campi di forza. Quando una gigantesca tempesta di sabbia sfonda la cupola e distrugge completamente Mars New York, gli abitanti di Mars Los Angeles dovranno cercare di fermare la tempesta prima di essere i prossimi ad essere...................................



In the distant future, a large portion of humanity lives on Mars, in cities that resemble those once found on Earth. The cities are protected from the inhospitable Martian atmosphere by ...








hostare immagini






[spoiler]
General
Unique ID                                : 312854977079068215818094265859103627386 (0xEB5DAD46BE6F1466F76D2D4C1839987A)
Complete name                            : Martian Land (2015).H264.ita.eng.iCV-MIRCrew.mkv
Format                                   : Matroska
Format version                           : Version 2
File size                                : 1.30 GiB
Duration                                 : 1h 25mn
Overall bit rate                         : 2 171 Kbps
Movie name                               : VISIT www.icv-crew.org
Encoded date                             : UTC 2016-12-20 21:01:07
Writing application                      : Lavf54.63.100
Writing library                          : Lavf54.63.100
COPYRIGHT                                : robbyrs

Video
ID                                       : 1
Format                                   : AVC
Format/Info                              : Advanced Video Codec
Format profile                           : Main@L4.1
Format settings, CABAC                   : Yes
Format settings, ReFrames                : 2 frames
Codec ID                                 : V_MPEG4/ISO/AVC
Duration                                 : 1h 25mn
Bit rate                                 : 1 270 Kbps
Width                                    : 720 pixels
Height                                   : 404 pixels
Display aspect ratio                     : 16:9
Frame rate mode                          : Variable
Frame rate                               : 23.976 fps
Color space                              : YUV
Chroma subsampling                       : 4:2:0
Bit depth                                : 8 bits
Scan type                                : Progressive
Bits/(Pixel*Frame)                       : 0.182
Stream size                              : 756 MiB (57%)
Writing library                          : x264 core 130 r2273
Encoding settings                        : cabac=1 / ref=2 / deblock=1:0:0 / analyse=0x1:0x131 / me=hex / subme=7 / psy=1 / psy_rd=1.00:0.00 / mixed_ref=0 / me_range=16 / chroma_me=1 / trellis=1 / 8x8dct=0 / cqm=0 / deadzone=21,11 / fast_pskip=1 / chroma_qp_offset=-2 / threads=12 / lookahead_threads=2 / sliced_threads=0 / nr=0 / decimate=1 / interlaced=0 / bluray_compat=0 / constrained_intra=0 / bframes=3 / b_pyramid=0 / b_adapt=1 / b_bias=0 / direct=3 / weightb=1 / open_gop=0 / weightp=2 / keyint=230 / keyint_min=23 / scenecut=40 / intra_refresh=0 / rc_lookahead=40 / rc=2pass / mbtree=1 / bitrate=1270 / ratetol=1.0 / qcomp=0.60 / qpmin=10 / qpmax=69 / qpstep=4 / cplxblur=20.0 / qblur=0.5 / vbv_maxrate=24000 / vbv_bufsize=24000 / nal_hrd=none / ip_ratio=1.40 / aq=1:1.00
Language                                 : English
Default                                  : Yes
Forced                                   : No
DURATION                                 : 01:25:49.269000000
NUMBER_OF_FRAMES                         : 123459
NUMBER_OF_BYTES                          : 5740947739
_STATISTICS_WRITING_APP                  : mkvmerge v8.7.0 ('All of the above') 64bit
_STATISTICS_WRITING_DATE_UTC             : 2016-12-19 15:35:03
_STATISTICS_TAGS                         : BPS DURATION NUMBER_OF_FRAMES NUMBER_OF_BYTES

Audio #1
ID                                       : 2
Format                                   : AC-3
Format/Info                              : Audio Coding 3
Mode extension                           : CM (complete main)
Codec ID                                 : A_AC3
Duration                                 : 1h 25mn
Bit rate mode                            : Constant
Bit rate                                 : 448 Kbps
Channel(s)                               : 6 channels
Channel positions                        : Front: L C R, Side: L R, LFE
Sampling rate                            : 48.0 KHz
Bit depth                                : 16 bits
Compression mode                         : Lossy
Delay relative to video                  : 1mn 5s
Stream size                              : 275 MiB (21%)
Language                                 : Italian
Default                                  : Yes
Forced                                   : No
DURATION                                 : 01:25:49.312000000
NUMBER_OF_FRAMES                         : 160916
NUMBER_OF_BYTES                          : 288361472
_STATISTICS_WRITING_APP                  : mkvmerge v8.7.0 ('All of the above') 64bit
_STATISTICS_WRITING_DATE_UTC             : 2016-12-19 15:35:03
_STATISTICS_TAGS                         : BPS DURATION NUMBER_OF_FRAMES NUMBER_OF_BYTES

Audio #2
ID                                       : 3
Format                                   : AC-3
Format/Info                              : Audio Coding 3
Mode extension                           : CM (complete main)
Codec ID                                 : A_AC3
Duration                                 : 1h 25mn
Bit rate mode                            : Constant
Bit rate                                 : 448 Kbps
Channel(s)                               : 6 channels
Channel positions                        : Front: L C R, Side: L R, LFE
Sampling rate                            : 48.0 KHz
Bit depth                                : 16 bits
Compression mode                         : Lossy
Delay relative to video                  : 1mn 5s
Stream size                              : 275 MiB (21%)
Language                                 : English
Default                                  : No
Forced                                   : No
DURATION                                 : 01:25:49.248000000
NUMBER_OF_FRAMES                         : 160914
NUMBER_OF_BYTES                          : 411939840
_STATISTICS_WRITING_APP                  : mkvmerge v8.7.0 ('All of the above') 64bit
_STATISTICS_WRITING_DATE_UTC             : 2016-12-19 15:35:03
_STATISTICS_TAGS                         : BPS DURATION NUMBER_OF_FRAMES NUMBER_OF_BYTES

Menu
00:00:00.000                             : :00:00:00.000
00:07:05.342                             : :00:07:05.342
00:14:28.201                             : :00:14:28.201
00:20:13.838                             : :00:20:13.838
00:29:27.099                             : :00:29:27.099
00:39:02.590                             : :00:39:02.590
00:50:56.804                             : :00:50:56.804
00:59:52.756                             : :00:59:52.756
01:08:53.129                             : :01:08:53.129
01:16:19.950                             : :01:16:19.950
01:23:27.706                             : :01:23:27.706



[/center]

Info: Per scaricare devi usare un client come uTorrent, o Azureus
AnnounceURL
udp://tracker.coppersurfer.tk:6969/announce
Hash 790ec38415e50f52e389c496a6070a15ce1bb8c1
Peers seeds: 110 , leech: 18
Size 1.30 GB
Completato 2404x
Aggiunto 21.12.16 - 12:12:53
Uploader   robbyrs
Votazione (Voti: 0)


Condividi questo bittorrent:


html/blog:


bbcode/forum:




Aggiungi Commento
Ultimi commenti
avatar   robbyrs   
è in italiano e in inglese audio selezionabile
21/12 17.35
  
Ma è sottotitolato? Grazie
21/12 17.06
Tutti commenti (2)