* Dettagli Torrent   globale  | Commenti (0) 


- Tokyo Love Hotel (2014).H264 Italian.Ipn.Ac3.5.1.sub.ita.iCV-MIRCrew -


Download via torrent:
Categoria bittorrent BDRip
Descrizione
Tokyo Love Hotel (2014).H264 Italian.Ipn.Ac3.5.1.sub.ita.iCV-MIRCrew

[center]


NO FOUND ONLY ORIGINAL RELEASE



My release is always in double track audio italian and Original audio
for select it use VLC or dvd player home
not use wmp

Tokyo Love Hotel (2014)







Titolo originale ????????
Sayonara Kabukich?
Lingua originale giapponese, coreano
Paese di produzione Giappone
Anno 2014
Durata 135 min
Rapporto 1.85 : 1
Genere drammatico, sentimentale
Regia Ry?ichi Hiroki
Sceneggiatura Haruhiko Arai, Futoshi Nakano
Produttore Mikihiko Hirata, Naoya Narita, Yasushi Minatoya, Kazuya Naito
Produttore esecutivo Tadayoshi Kubo, Osamu Fujioka
Casa di produzione Tokyo Theatres Co., W Fields, Gambit
Distribuzione (Italia) Tucker Film
Fotografia Atsuhiro Nabeshima
Montaggio Jun'ichi Kikuchi
Musiche Ayano Tsuji, Shin Yasui




   Sh?ta Sometani: Toru Takahashi
   Atsuko Maeda: Saya Iijima
   Lee Eun-woo: Heya
   Son Il-kwon: Chong-su
   Kaho Minami: Satomi Suzuki
   Yutaka Matsushige: Yasuo Ikezawa
   Nao ?mori: Kazuki Takenaka
   Jun Murakami: Kagehisa Amemiya
   Tomorowo Taguchi: Masashi Kubota
   Sh?go Oshinari: Masaya Hayase
   Miwako Wagatsuma: Hinako Fukumoto
   Aoba Kawai: Rikako Fujita
   Tomu Miyazaki: Ry?hei Shinjo
   Asuka Hinoi: Miyu Takahashi




Toru convive in un piccolo appartamento di Tokyo con la fidanzata Saya, una cantautrice in erba che sogna di debuttare nell'ambiente discografico con il suo gruppo. Ella gli confida di essere in contatto con un produttore che vorrebbe offrirle un contratto escludendo però gli altri membri del complesso dall'accordo. ...........................



Over one day at this love hotel in Shinjuku, Tokyo - where guests have the choice of staying for a short time or overnight - the dreams and desires of these characters intersect while aspiring for something greater.











[spoiler]
General
Unique ID                                : 219837973003540688273489834878488692993 (0xA56340E62B1CBF6CA567DB436E8E4901)
Complete name                            : Tokyo Love Hotel (2014).H264.ita.Jpn.sub.ita.iCV-MIRCrew.mkv
Format                                   : Matroska
Format version                           : Version 2
File size                                : 1.74 GiB
Duration                                 : 2h 9mn
Overall bit rate                         : 1 919 Kbps
Movie name                               : TOKYO_LOVE_HOTEL.Title1
Encoded date                             : UTC 2016-12-16 15:25:30
Writing application                      : DVDFab 9.1.5.7
Writing library                          : libebml v0.7.8 + libmatroska v0.8.1

Video
ID                                       : 1
Format                                   : AVC
Format/Info                              : Advanced Video Codec
Format profile                           : High@L4.1
Format settings, CABAC                   : Yes
Format settings, ReFrames                : 2 frames
Codec ID                                 : V_MPEG4/ISO/AVC
Duration                                 : 2h 9mn
Bit rate                                 : 1 241 Kbps
Width                                    : 720 pixels
Height                                   : 388 pixels
Display aspect ratio                     : 1.856
Frame rate                               : 25.000 fps
Color space                              : YUV
Chroma subsampling                       : 4:2:0
Bit depth                                : 8 bits
Scan type                                : Progressive
Bits/(Pixel*Frame)                       : 0.178
Stream size                              : 1.12 GiB (65%)
Writing library                          : x264 core
Default                                  : Yes
Forced                                   : No
Color primaries                          : BT.601-6 525, BT.1358 525, BT.1700 NTSC, SMPTE 170M
Transfer characteristics                 : BT.709-5, BT.1361
Matrix coefficients                      : BT.601-6 525, BT.1358 525, BT.1700 NTSC, SMPTE 170M

Audio #1
ID                                       : 2
Format                                   : AC-3
Format/Info                              : Audio Coding 3
Mode extension                           : CM (complete main)
Codec ID                                 : A_AC3
Duration                                 : 2h 9mn
Bit rate mode                            : Constant
Bit rate                                 : 448 Kbps
Channel(s)                               : 6 channels
Channel positions                        : Front: L C R, Side: L R, LFE
Sampling rate                            : 48.0 KHz
Bit depth                                : 16 bits
Compression mode                         : Lossy
Stream size                              : 415 MiB (23%)
Language                                 : Italian
Default                                  : Yes
Forced                                   : No

Audio #2
ID                                       : 3
Format                                   : AC-3
Format/Info                              : Audio Coding 3
Mode extension                           : CM (complete main)
Codec ID                                 : A_AC3
Duration                                 : 2h 9mn
Bit rate mode                            : Constant
Bit rate                                 : 192 Kbps
Channel(s)                               : 2 channels
Channel positions                        : Front: L R
Sampling rate                            : 48.0 KHz
Bit depth                                : 16 bits
Compression mode                         : Lossy
Stream size                              : 178 MiB (10%)
Language                                 : Japanese
Default                                  : No
Forced                                   : No

Text #1
ID                                       : 4
Format                                   : VobSub
Codec ID                                 : S_VOBSUB
Codec ID/Info                            : The same subtitle format used on DVDs
Language                                 : Italian
Default                                  : Yes
Forced                                   : No

Text #2
ID                                       : 5
Format                                   : VobSub
Codec ID                                 : S_VOBSUB
Codec ID/Info                            : The same subtitle format used on DVDs
Language                                 : Italian
Default                                  : No
Forced                                   : No

Menu
00:00:00.000                             : en01)00:00:00:000
00:10:38.960                             : en02)00:10:38:960
00:16:26.760                             : en03)00:16:26:760
00:23:04.920                             : en04)00:23:04:920
00:29:59.640                             : en05)00:29:59:640
00:38:32.520                             : en06)00:38:32:520
00:45:07.560                             : en07)00:45:07:560
00:52:59.920                             : en000:52:59:920
01:02:12.840                             : en09)01:02:12:840
01:08:34.080                             : en10)01:08:34:080
01:12:29.320                             : en11)01:12:29:320
01:18:43.120                             : en12)01:18:43:120
01:26:48.880                             : en13)01:26:48:880
01:35:50.920                             : en14)01:35:50:920
01:45:10.280                             : en15)01:45:10:280
01:51:46.640                             : en16)01:51:46:640
01:57:21.760                             : en17)01:57:21:760
02:06:44.680                             : en102:06:44:680





[/center]

Info: Per scaricare devi usare un client come uTorrent, o Azureus
AnnounceURL
udp://tracker.coppersurfer.tk:6969/announce
Hash 1e1831a6d7284ce6ee121c6c9a628ac7b438ac08
Peers seeds: 60 , leech: 5
Size 1.74 GB
Completato 1164x
Aggiunto 21.12.16 - 13:12:46
Uploader   robbyrs
Votazione (Voti: 0)


Condividi questo bittorrent:


html/blog:


bbcode/forum:




Aggiungi Commento