* Dettagli Torrent   globale  | Commenti (0) 


- Hell Or High Water (2016).H264.Italian.English.Ac3.5.1.sub.ita.eng.iCV-MIRCrew -


Download via torrent:
Categoria bittorrent BDRip
Descrizione
Hell Or High Water (2016).H264.Italian.English.Ac3.5.1.sub.ita.eng.iCV-MIRCrew

[center]by www.icv-crew.org


NO FOUND ONLY ORIGINAL RELEASE



My release is always in double track audio italian and Original audio
for select it use VLC or dvd player home
not use wmp

Hell Or High Water (2016)







   DATA USCITA: N.D.
   GENERE: Drammatico
   ANNO: 2016
   REGIA: David Mackenzie
   SCENEGGIATURA: Taylor Sheridan
   FOTOGRAFIA: Giles Nuttgens
   MONTAGGIO: Jake Roberts
   PRODUZIONE: Film 44, Sidney Kimmel Entertainment
   PAESE: USA



Chris Pine, Jeff Bridges, Ben Foster, Katy Mixon, Kevin Rankin, Gil Birmingham, Dale Dickey, Marin Ireland, Melanie Papalia



Due fratelli, un padre divorziato e un ex detenuto, compiono una serie di rapine per salvare la fattoria di famiglia nel West Texas. Un esperto Texas Ranger si mette sulle loro tracce come ultimo caso prima del suo pensionamento.



A divorced father and his ex-con older brother resort to a desperate scheme in order to save their family's ranch in West Texas



[img]https://extraimage.net/images/2016/12/21/940106e77425eb5eb3ce16bf213a3fbf.th.png[/img]






[spoiler]
General
Unique ID                                : 98814864739580204064281458006247768100 (0x4A570CFA5D368759949BE5DE7E168024)
Complete name                            : Hell Or High Water (2016).H264.ita.eng.sub.ita.eng.iCV-MIRCrew.mkv
Format                                   : Matroska
Format version                           : Version 2
File size                                : 1.56 GiB
Duration                                 : 1h 42mn
Overall bit rate                         : 2 181 Kbps
Movie name                               : VISIT www.icv-crew.org
Encoded date                             : UTC 2016-11-21 09:02:58
Writing application                      : Lavf54.63.100
Writing library                          : Lavf54.63.100
COPYRIGHT                                : robbyrs

Video
ID                                       : 1
Format                                   : AVC
Format/Info                              : Advanced Video Codec
Format profile                           : Main@L4.1
Format settings, CABAC                   : Yes
Format settings, ReFrames                : 2 frames
Codec ID                                 : V_MPEG4/ISO/AVC
Duration                                 : 1h 42mn
Bit rate                                 : 1 280 Kbps
Width                                    : 720 pixels
Height                                   : 300 pixels
Display aspect ratio                     : 2.40:1
Original display aspect ratio            : 2.40:1
Frame rate mode                          : Variable
Frame rate                               : 23.976 fps
Color space                              : YUV
Chroma subsampling                       : 4:2:0
Bit depth                                : 8 bits
Scan type                                : Progressive
Bits/(Pixel*Frame)                       : 0.247
Stream size                              : 908 MiB (57%)
Writing library                          : x264 core 130 r2273
Encoding settings                        : cabac=1 / ref=2 / deblock=1:0:0 / analyse=0x1:0x131 / me=hex / subme=7 / psy=1 / psy_rd=1.00:0.00 / mixed_ref=0 / me_range=16 / chroma_me=1 / trellis=1 / 8x8dct=0 / cqm=0 / deadzone=21,11 / fast_pskip=1 / chroma_qp_offset=-2 / threads=12 / lookahead_threads=2 / sliced_threads=0 / nr=0 / decimate=1 / interlaced=0 / bluray_compat=0 / constrained_intra=0 / bframes=3 / b_pyramid=0 / b_adapt=1 / b_bias=0 / direct=3 / weightb=1 / open_gop=0 / weightp=2 / keyint=230 / keyint_min=23 / scenecut=40 / intra_refresh=0 / rc_lookahead=40 / rc=2pass / mbtree=1 / bitrate=1280 / ratetol=1.0 / qcomp=0.60 / qpmin=10 / qpmax=69 / qpstep=4 / cplxblur=20.0 / qblur=0.5 / vbv_maxrate=24000 / vbv_bufsize=24000 / nal_hrd=none / ip_ratio=1.40 / aq=1:1.00
Default                                  : Yes
Forced                                   : No
DURATION                                 : 01:42:15.379000000
NUMBER_OF_FRAMES                         : 147102
NUMBER_OF_BYTES                          : 8168656238
_STATISTICS_WRITING_APP                  : mkvmerge v7.2.0 ('On Every Street') 64bit built on Sep 13 2014 15:52:10
_STATISTICS_WRITING_DATE_UTC             : 2016-11-19 03:45:39
_STATISTICS_TAGS                         : BPS DURATION NUMBER_OF_FRAMES NUMBER_OF_BYTES

Audio #1
ID                                       : 2
Format                                   : AC-3
Format/Info                              : Audio Coding 3
Mode extension                           : CM (complete main)
Codec ID                                 : A_AC3
Duration                                 : 1h 42mn
Bit rate mode                            : Constant
Bit rate                                 : 448 Kbps
Channel(s)                               : 6 channels
Channel positions                        : Front: L C R, Side: L R, LFE
Sampling rate                            : 48.0 KHz
Bit depth                                : 16 bits
Compression mode                         : Lossy
Delay relative to video                  : 1mn 5s
Stream size                              : 328 MiB (21%)
Title                                    : AC3 iTA
Language                                 : Italian
Default                                  : Yes
Forced                                   : Yes
DURATION                                 : 01:42:15.488000000
NUMBER_OF_FRAMES                         : 191734
NUMBER_OF_BYTES                          : 343587328
_STATISTICS_WRITING_APP                  : mkvmerge v7.2.0 ('On Every Street') 64bit built on Sep 13 2014 15:52:10
_STATISTICS_WRITING_DATE_UTC             : 2016-11-19 03:45:39
_STATISTICS_TAGS                         : BPS DURATION NUMBER_OF_FRAMES NUMBER_OF_BYTES

Audio #2
ID                                       : 3
Format                                   : AC-3
Format/Info                              : Audio Coding 3
Mode extension                           : CM (complete main)
Codec ID                                 : A_AC3
Duration                                 : 1h 42mn
Bit rate mode                            : Constant
Bit rate                                 : 448 Kbps
Channel(s)                               : 6 channels
Channel positions                        : Front: L C R, Side: L R, LFE
Sampling rate                            : 48.0 KHz
Bit depth                                : 16 bits
Compression mode                         : Lossy
Delay relative to video                  : 1mn 5s
Stream size                              : 328 MiB (21%)
Title                                    : AC3 ENG
Language                                 : English
Default                                  : No
Forced                                   : No
DURATION                                 : 01:42:15.488000000
NUMBER_OF_FRAMES                         : 191734
NUMBER_OF_BYTES                          : 490839040
_STATISTICS_WRITING_APP                  : mkvmerge v7.2.0 ('On Every Street') 64bit built on Sep 13 2014 15:52:10
_STATISTICS_WRITING_DATE_UTC             : 2016-11-19 03:45:39
_STATISTICS_TAGS                         : BPS DURATION NUMBER_OF_FRAMES NUMBER_OF_BYTES

Text #1
ID                                       : 4
Format                                   : UTF-8
Codec ID                                 : S_TEXT/UTF8
Codec ID/Info                            : UTF-8 Plain Text
Title                                    : FORCED iTA
Language                                 : Italian
Default                                  : Yes
Forced                                   : Yes
DURATION                                 : 01:37:36.601000000
NUMBER_OF_FRAMES                         : 12
NUMBER_OF_BYTES                          : 366
_STATISTICS_WRITING_APP                  : mkvmerge v7.2.0 ('On Every Street') 64bit built on Sep 13 2014 15:52:10
_STATISTICS_WRITING_DATE_UTC             : 2016-11-19 03:45:39
_STATISTICS_TAGS                         : BPS DURATION NUMBER_OF_FRAMES NUMBER_OF_BYTES

Text #2
ID                                       : 5
Format                                   : UTF-8
Codec ID                                 : S_TEXT/UTF8
Codec ID/Info                            : UTF-8 Plain Text
Title                                    : REGULAR iTA
Language                                 : Italian
Default                                  : No
Forced                                   : No
DURATION                                 : 01:37:32.931000000
NUMBER_OF_FRAMES                         : 1038
NUMBER_OF_BYTES                          : 33038
_STATISTICS_WRITING_APP                  : mkvmerge v7.2.0 ('On Every Street') 64bit built on Sep 13 2014 15:52:10
_STATISTICS_WRITING_DATE_UTC             : 2016-11-19 03:45:39
_STATISTICS_TAGS                         : BPS DURATION NUMBER_OF_FRAMES NUMBER_OF_BYTES

Text #3
ID                                       : 6
Format                                   : UTF-8
Codec ID                                 : S_TEXT/UTF8
Codec ID/Info                            : UTF-8 Plain Text
Title                                    : REGULAR ENG
Language                                 : English
Default                                  : No
Forced                                   : No
DURATION                                 : 01:34:40.999000000
NUMBER_OF_FRAMES                         : 1196
NUMBER_OF_BYTES                          : 38011
_STATISTICS_WRITING_APP                  : mkvmerge v7.2.0 ('On Every Street') 64bit built on Sep 13 2014 15:52:10
_STATISTICS_WRITING_DATE_UTC             : 2016-11-19 03:45:39
_STATISTICS_TAGS                         : BPS DURATION NUMBER_OF_FRAMES NUMBER_OF_BYTES

Text #4
ID                                       : 7
Format                                   : UTF-8
Codec ID                                 : S_TEXT/UTF8
Codec ID/Info                            : UTF-8 Plain Text
Title                                    : NON UDENTI ENG
Language                                 : English
Default                                  : No
Forced                                   : No
DURATION                                 : 01:36:08.503000000
NUMBER_OF_FRAMES                         : 1329
NUMBER_OF_BYTES                          : 41907
_STATISTICS_WRITING_APP                  : mkvmerge v7.2.0 ('On Every Street') 64bit built on Sep 13 2014 15:52:10
_STATISTICS_WRITING_DATE_UTC             : 2016-11-19 03:45:39
_STATISTICS_TAGS                         : BPS DURATION NUMBER_OF_FRAMES NUMBER_OF_BYTES

Menu
00:00:00.000                             : :00:00:00.000
00:09:37.243                             : :00:09:37.243
00:13:50.455                             : :00:13:50.455
00:22:14.583                             : :00:22:14.583
00:28:40.385                             : :00:28:40.385
00:31:54.329                             : :00:31:54.329
00:40:49.614                             : :00:40:49.614
00:46:49.932                             : :00:46:49.932
00:55:45.092                             : :00:55:45.092
01:02:06.473                             : :01:02:06.473
01:09:52.897                             : :01:09:52.897
01:14:04.649                             : :01:14:04.649
01:20:56.226                             : :01:20:56.226
01:29:09.135                             : :01:29:09.135
01:35:03.865                             : :01:35:03.865
01:38:28.277                             : :01:38:28.277


[/spoiler]

[/center]

Info: Per scaricare devi usare un client come uTorrent, o Azureus
AnnounceURL
udp://tracker.coppersurfer.tk:6969/announce
Hash 912397b932c5082fbf193a4d468ea9ca8420bbc1
Peers seeds: 179 , leech: 32
Size 1.56 GB
Completato 2959x
Aggiunto 21.12.16 - 14:12:54
Uploader   robbyrs
Votazione (Voti: 0)


Condividi questo bittorrent:


html/blog:


bbcode/forum:




Aggiungi Commento