* Dettagli Torrent   globale  | Commenti (1) 


- Bridget Jones s Baby (2016).H264.Italian.English.Ac3.5.1.sub.ita.eng.iCV-MIRCrew -


Download via torrent:
Categoria bittorrent BDRip
Descrizione
Bridget Jones s Baby (2016).H264.Italian.English.Ac3.5.1.sub.ita.eng.iCV-MIRCrew


[center] by  www.icv-crew.org


NO FOUND ONLY ORIGINAL RELEASE



My release is always in double track audio italian and Original audio
for select it use VLC or dvd player home
not use wmp

Bridget Jones's Baby (2016)







   DATA USCITA: 22 settembre 2016
   GENERE: Commedia
   ANNO: 2016
   REGIA: Sharon Maguire
   SCENEGGIATURA: Helen Fielding
   FOTOGRAFIA: Andrew Dunn
   MONTAGGIO: Melanie Oliver
   PRODUZIONE: Working Title Films
   DISTRIBUZIONE: Universal Pictures Italy
   PAESE: Gran Bretagna
   DURATA: 123 Min



Renée Zellweger, Colin Firth, Patrick Dempsey, Jim Broadbent, Celia Imrie, James Callis, Sally Phillips, Enzo Cilenti, Gemma Jones, Mark Arnold, Ed Sheeran



Sono passati 12 anni da quando Bridget Jones ha iniziato a scrivere il suo diario. Continuano ora le avventure e le disavventure della executive londinese ora arrivata alla soglia dei quarant'anni. In Bridget Jones 3, Bridget decide di concentrarsi sul suo lavoro di collaboratrice in un notiziario di punta, e di circondarsi di vecchi e nuovi amici.



Bridget's focus on single life and her career is interrupted when she finds herself pregnant, but with one hitch ... she can only be fifty percent sure of the identity of her baby's father.











[spoiler]
General
Unique ID                                : 166016988892527082782502334430573496539 (0x7CE5B5823CB9BE71799C23213E8008DB)
Complete name                            : Bridget Jones's Baby (2016).H264.ita.eng.sub.ita.eng.iCV-MIRCrew.mkv
Format                                   : Matroska
Format version                           : Version 2
File size                                : 1.75 GiB
Duration                                 : 2h 2mn
Overall bit rate                         : 2 043 Kbps
Movie name                               : VISIT www.icv-crew.org
Encoded date                             : UTC 2016-12-21 21:13:37
Writing application                      : Lavf54.63.100
Writing library                          : Lavf54.63.100
COPYRIGHT                                : robbyrs

Video
ID                                       : 1
Format                                   : AVC
Format/Info                              : Advanced Video Codec
Format profile                           : Main@L4.1
Format settings, CABAC                   : Yes
Format settings, ReFrames                : 2 frames
Codec ID                                 : V_MPEG4/ISO/AVC
Duration                                 : 2h 2mn
Bit rate                                 : 1 270 Kbps
Width                                    : 720 pixels
Height                                   : 304 pixels
Display aspect ratio                     : 2.40:1
Frame rate mode                          : Variable
Frame rate                               : 23.976 fps
Color space                              : YUV
Chroma subsampling                       : 4:2:0
Bit depth                                : 8 bits
Scan type                                : Progressive
Bits/(Pixel*Frame)                       : 0.242
Stream size                              : 1.06 GiB (60%)
Writing library                          : x264 core 130 r2273
Encoding settings                        : cabac=1 / ref=2 / deblock=1:0:0 / analyse=0x1:0x131 / me=hex / subme=7 / psy=1 / psy_rd=1.00:0.00 / mixed_ref=0 / me_range=16 / chroma_me=1 / trellis=1 / 8x8dct=0 / cqm=0 / deadzone=21,11 / fast_pskip=1 / chroma_qp_offset=-2 / threads=12 / lookahead_threads=2 / sliced_threads=0 / nr=0 / decimate=1 / interlaced=0 / bluray_compat=0 / constrained_intra=0 / bframes=3 / b_pyramid=0 / b_adapt=1 / b_bias=0 / direct=3 / weightb=1 / open_gop=0 / weightp=2 / keyint=230 / keyint_min=23 / scenecut=40 / intra_refresh=0 / rc_lookahead=40 / rc=2pass / mbtree=1 / bitrate=1270 / ratetol=1.0 / qcomp=0.60 / qpmin=10 / qpmax=69 / qpstep=4 / cplxblur=20.0 / qblur=0.5 / vbv_maxrate=24000 / vbv_bufsize=24000 / nal_hrd=none / ip_ratio=1.40 / aq=1:1.00
Language                                 : English
Default                                  : Yes
Forced                                   : No
DURATION                                 : 02:02:38.727000000
NUMBER_OF_FRAMES                         : 176433
NUMBER_OF_BYTES                          : 7563052947
_STATISTICS_WRITING_APP                  : mkvmerge v8.7.0 ('All of the above') 64bit
_STATISTICS_WRITING_DATE_UTC             : 2016-12-21 14:41:54
_STATISTICS_TAGS                         : BPS DURATION NUMBER_OF_FRAMES NUMBER_OF_BYTES

Audio #1
ID                                       : 2
Format                                   : AC-3
Format/Info                              : Audio Coding 3
Mode extension                           : CM (complete main)
Codec ID                                 : A_AC3
Duration                                 : 2h 2mn
Bit rate mode                            : Constant
Bit rate                                 : 384 Kbps
Channel(s)                               : 6 channels
Channel positions                        : Front: L C R, Side: L R, LFE
Sampling rate                            : 48.0 KHz
Bit depth                                : 16 bits
Compression mode                         : Lossy
Delay relative to video                  : 1mn 5s
Stream size                              : 337 MiB (19%)
Language                                 : Italian
Default                                  : Yes
Forced                                   : No
DURATION                                 : 02:02:38.176000000
NUMBER_OF_FRAMES                         : 229943
NUMBER_OF_BYTES                          : 353192448
_STATISTICS_WRITING_APP                  : mkvmerge v8.7.0 ('All of the above') 64bit
_STATISTICS_WRITING_DATE_UTC             : 2016-12-21 14:41:54
_STATISTICS_TAGS                         : BPS DURATION NUMBER_OF_FRAMES NUMBER_OF_BYTES

Audio #2
ID                                       : 3
Format                                   : AC-3
Format/Info                              : Audio Coding 3
Mode extension                           : CM (complete main)
Codec ID                                 : A_AC3
Duration                                 : 2h 2mn
Bit rate mode                            : Constant
Bit rate                                 : 384 Kbps
Channel(s)                               : 6 channels
Channel positions                        : Front: L C R, Side: L R, LFE
Sampling rate                            : 48.0 KHz
Bit depth                                : 16 bits
Compression mode                         : Lossy
Delay relative to video                  : 1mn 5s
Stream size                              : 337 MiB (19%)
Language                                 : English
Default                                  : No
Forced                                   : No
DURATION                                 : 02:02:38.774000000
NUMBER_OF_FRAMES                         : 689885
NUMBER_OF_BYTES                          : 1388048708
_STATISTICS_WRITING_APP                  : mkvmerge v8.7.0 ('All of the above') 64bit
_STATISTICS_WRITING_DATE_UTC             : 2016-12-21 14:41:54
_STATISTICS_TAGS                         : BPS DURATION NUMBER_OF_FRAMES NUMBER_OF_BYTES

Text #1
ID                                       : 4
Format                                   : UTF-8
Codec ID                                 : S_TEXT/UTF8
Codec ID/Info                            : UTF-8 Plain Text
Title                                    : FORCED
Language                                 : Italian
Default                                  : Yes
Forced                                   : No
DURATION                                 : 01:54:51.851000000
NUMBER_OF_FRAMES                         : 44
NUMBER_OF_BYTES                          : 1314
_STATISTICS_WRITING_APP                  : mkvmerge v8.7.0 ('All of the above') 64bit
_STATISTICS_WRITING_DATE_UTC             : 2016-12-21 14:41:54
_STATISTICS_TAGS                         : BPS DURATION NUMBER_OF_FRAMES NUMBER_OF_BYTES

Text #2
ID                                       : 5
Format                                   : UTF-8
Codec ID                                 : S_TEXT/UTF8
Codec ID/Info                            : UTF-8 Plain Text
Title                                    : REGOLARI
Language                                 : Italian
Default                                  : No
Forced                                   : No
DURATION                                 : 01:54:51.851000000
NUMBER_OF_FRAMES                         : 1815
NUMBER_OF_BYTES                          : 60975
_STATISTICS_WRITING_APP                  : mkvmerge v8.7.0 ('All of the above') 64bit
_STATISTICS_WRITING_DATE_UTC             : 2016-12-21 14:41:54
_STATISTICS_TAGS                         : BPS DURATION NUMBER_OF_FRAMES NUMBER_OF_BYTES

Text #3
ID                                       : 6
Format                                   : UTF-8
Codec ID                                 : S_TEXT/UTF8
Codec ID/Info                            : UTF-8 Plain Text
Title                                    : NON UDENTI
Language                                 : English
Default                                  : No
Forced                                   : No
DURATION                                 : 01:54:15.974000000
NUMBER_OF_FRAMES                         : 2144
NUMBER_OF_BYTES                          : 69870
_STATISTICS_WRITING_APP                  : mkvmerge v8.7.0 ('All of the above') 64bit
_STATISTICS_WRITING_DATE_UTC             : 2016-12-21 14:41:54
_STATISTICS_TAGS                         : BPS DURATION NUMBER_OF_FRAMES NUMBER_OF_BYTES

Menu
00:00:00.000                             : :00:00:00.000
00:08:49.528                             : :00:08:49.528
00:16:21.562                             : :00:16:21.562
00:24:09.655                             : :00:24:09.655
00:29:54.625                             : :00:29:54.625
00:34:51.297                             : :00:34:51.297
00:41:29.235                             : :00:41:29.235
00:47:42.400                             : :00:47:42.400
00:52:05.454                             : :00:52:05.454
00:57:44.835                             : :00:57:44.835
01:03:38.313                             : :01:03:38.313
01:08:12.880                             : :01:08:12.880
01:13:17.475                             : :01:13:17.475
01:20:48.551                             : :01:20:48.551
01:27:32.997                             : :01:27:32.997
01:37:28.175                             : :01:37:28.175
01:43:18.442                             : :01:43:18.442
01:48:10.567                             : :01:48:10.567
01:51:53.664                             : :01:51:53.664
01:56:07.793                             : :01:56:07.793



[/spoiler]

[/center]

Info: Per scaricare devi usare un client come uTorrent o Transmission
AnnounceURL
udp://tracker.coppersurfer.tk:6969/announce
Hash c74ce968fb5fa5182250101e39aa1be8c8ecda7a
Peers seeds: 424 , leech: 133
Size 1.75 GB
Completato 4603x
Aggiunto 22.12.16 - 12:12:23
Uploader   robbyrs
Votazione (Voti: 1)


Condividi questo bittorrent:


html/blog:


bbcode/forum:




Aggiungi Commento
Ultimi commenti
  
non funzionano i link nè questo nè quello prima...
25/12 14.43
Tutti commenti (1)