* Dettagli Torrent   globale  | Commenti (0) 


- God’s Pocket (2014).H264.Italian.English.Ac3.sub.ita.eng.iCV-MIRCrew -


Download via torrent:
Categoria bittorrent BDRip
Descrizione
God’s Pocket (2014).H264.Italian.English.Ac3.sub.ita.eng.iCV-MIRCrew

[center]



NO FOUND ONLY ORIGINAL RELEASE



My release is always in double track audio italian and Original audio
for select it use VLC or dvd player home
not use wmp

God’s Pocket (2014)

[img]https://extraimage.net/images/2016/12/23/ee517d6acce7f2cd40fdac729023de18.png[/img]





   GENERE: Drammatico , Commedia
   ANNO: 2014
   REGIA: John Slattery
   SCENEGGIATURA: John Slattery, Alex Metcalf
   FOTOGRAFIA: Lance Acord
   MONTAGGIO: Tom McArdle
   MUSICHE: Nathan Larson
   PRODUZIONE: Park Pictures, Cooper's Town Productions, Shoestring Pictures
   PAESE: USA



Philip Seymour Hoffman, Richard Jenkins, John Turturro, Christina Hendricks, Caleb Landry Jones, Eddie Marsan, Domenick Lombardozzi, Peter Gerety



Dopo che il suo svitato e maligno figliastro Leon rimane ucciso in un "incidente" nel cantiere dove lavora, Mickey è costretto dalla moglie a scoprire cosa è accaduto realmente. Rimarrà così incastrato tra un cadavere che non ha i soldi per far seppellire, una scommessa andata male



A blue collar worker tries to cover things up when his stepson is killed in a suspicious accident, but a local reporter senses that something's amiss.










[spoiler]
General
Unique ID                                : 189071011405273457039165303946490090088 (0x8E3DC09354DA947DC46CA413A75F126
Complete name                            : C:\Users\robby\Desktop\God’s Pocket (2014).H264.ita.eng.sub.ita.eng.iCV-MIRCrew.mkv
Format                                   : Matroska
Format version                           : Version 2
File size                                : 1.01 GiB
Duration                                 : 1h 29mn
Overall bit rate                         : 1 613 Kbps

Encoded date                             : UTC 2016-12-20T09:36:53Z
Writing application                      : HandBrake 0.10.5 2016021100
Writing library                          : Lavf55.12.0

Video
ID                                       : 1
Format                                   : AVC
Format/Info                              : Advanced Video Codec
Format profile                           : Main@L4.0
Format settings, CABAC                   : Yes
Format settings, ReFrames                : 4 frames
Codec ID                                 : V_MPEG4/ISO/AVC
Duration                                 : 1h 29mn
Bit rate                                 : 1 197 Kbps
Nominal bit rate                         : 1 270 Kbps
Width                                    : 688 pixels
Height                                   : 288 pixels
Display aspect ratio                     : 2.40:1
Original display aspect ratio            : 2.40:1
Frame rate mode                          : Variable / Variable
Frame rate                               : 23.976 fps
Color space                              : YUV
Chroma subsampling                       : 4:2:0
Bit depth                                : 8 bits
Scan type                                : Progressive
Bits/(Pixel*Frame)                       : 0.252
Stream size                              : 766 MiB (74%)
Writing library                          : x264 core 142 r2479 dd79a61
Encoding settings                        : cabac=1 / ref=1 / deblock=1:0:0 / analyse=0x1:0x111 / me=hex / subme=2 / psy=1 / psy_rd=1.00:0.00 / mixed_ref=0 / me_range=16 / chroma_me=1 / trellis=0 / 8x8dct=0 / cqm=0 / deadzone=21,11 / fast_pskip=1 / chroma_qp_offset=0 / threads=3 / lookahead_threads=1 / sliced_threads=0 / nr=0 / decimate=1 / interlaced=0 / bluray_compat=0 / constrained_intra=0 / bframes=3 / b_pyramid=2 / b_adapt=1 / b_bias=0 / direct=1 / weightb=1 / open_gop=0 / weightp=1 / keyint=240 / keyint_min=24 / scenecut=40 / intra_refresh=0 / rc_lookahead=10 / rc=abr / mbtree=1 / bitrate=1270 / ratetol=1.0 / qcomp=0.60 / qpmin=0 / qpmax=69 / qpstep=4 / vbv_maxrate=20000 / vbv_bufsize=25000 / nal_hrd=none / filler=0 / ip_ratio=1.40 / aq=1:1.00
Default                                  : Yes
Forced                                   : No
Color primaries                          : BT.709-5, BT.1361, IEC 61966-2-4, SMPTE RP177
Transfer characteristics                 : BT.709-5, BT.1361
Matrix coefficients                      : BT.709-5, BT.1361, IEC 61966-2-4 709, SMPTE RP177

Audio #1
ID                                       : 2
Format                                   : AC-3
Format/Info                              : Audio Coding 3
Mode extension                           : CM (complete main)
Codec ID                                 : A_AC3
Duration                                 : 1h 29mn
Bit rate mode                            : Constant
Bit rate                                 : 192 Kbps
Channel(s)                               : 2 channels
Channel positions                        : Front: L R
Sampling rate                            : 48.0 KHz
Bit depth                                : 16 bits
Compression mode                         : Lossy
Delay relative to video                  : 1mn 5s
Stream size                              : 123 MiB (12%)
Title                                    : Stereo
Language                                 : Italian
Default                                  : Yes
Forced                                   : No

Audio #2
ID                                       : 3
Format                                   : AC-3
Format/Info                              : Audio Coding 3
Mode extension                           : CM (complete main)
Codec ID                                 : A_AC3
Duration                                 : 1h 29mn
Bit rate mode                            : Constant
Bit rate                                 : 192 Kbps
Channel(s)                               : 2 channels
Channel positions                        : Front: L R
Sampling rate                            : 48.0 KHz
Bit depth                                : 16 bits
Compression mode                         : Lossy
Delay relative to video                  : 1mn 5s
Stream size                              : 123 MiB (12%)
Title                                    : Stereo
Language                                 : Italian
Default                                  : No
Forced                                   : No

Text #1
ID                                       : 4
Format                                   : ASS
Codec ID                                 : S_TEXT/ASS
Codec ID/Info                            : Advanced Sub Station Alpha
Compression mode                         : Lossless
Language                                 : Italian
Default                                  : No
Forced                                   : No

Text #2
ID                                       : 5
Format                                   : ASS
Codec ID                                 : S_TEXT/ASS
Codec ID/Info                            : Advanced Sub Station Alpha
Compression mode                         : Lossless
Language                                 : Italian
Default                                  : No
Forced                                   : No

Text #3
ID                                       : 6
Format                                   : ASS
Codec ID                                 : S_TEXT/ASS
Codec ID/Info                            : Advanced Sub Station Alpha
Compression mode                         : Lossless
Language                                 : English
Default                                  : No
Forced                                   : No

Text #4
ID                                       : 7
Format                                   : ASS
Codec ID                                 : S_TEXT/ASS
Codec ID/Info                            : Advanced Sub Station Alpha
Compression mode                         : Lossless
Language                                 : English
Default                                  : No
Forced                                   : No

Menu
00:00:00.000                             : :00:00:00.000
00:04:37.322                             : :00:07:10.096
00:12:09.231                             : :00:14:41.714
00:19:33.967                             : :00:22:06.659
00:25:36.204                             : :00:28:08.937
00:33:14.495                             : :00:35:47.020
00:39:37.336                             : :00:42:09.861
00:46:09.436                             : :00:48:41.961
00:54:36.776                             : :00:57:09.509
00:59:21.352                             : :01:01:54.085
01:08:40.578                             : :01:11:13.060
01:15:59.641                             : :01:18:32.374



[/spoiler]

[/center]

Info: Per scaricare devi usare un client come uTorrent, o Azureus
AnnounceURL
udp://tracker.coppersurfer.tk:6969/announce
Hash 9b63265c03461316b48b74ceb67cb9412ba12d4b
Peers seeds: 61 , leech: 7
Size 1.01 GB
Completato 783x
Aggiunto 23.12.16 - 13:12:50
Uploader   robbyrs
Votazione (Voti: 1)


Condividi questo bittorrent:


html/blog:


bbcode/forum:




Aggiungi Commento