* Dettagli Torrent   globale  | Commenti (0) 


- Draft Day (2014) - REPACK.H264.Italian.English.Ac3.5.1.sub.ita.iCV-MIRCrew -


Download via torrent:
Categoria bittorrent BDRip
Descrizione
Draft Day (2014) - REPACK.H264.Italian.English.Ac3.5.1.sub.ita.iCV-MIRCrew

[center]



NO FOUND ONLY ORIGINAL RELEASE



My release is always in double track audio italian and Original audio
for select it use VLC or dvd player home
not use wmp

Draft Day (2014) - REPACK audio ita in sinc rip da fonte DVD







   GENERE: Drammatico
   ANNO: 2014
   REGIA: Ivan Reitman
   SCENEGGIATURA: Scott Rothman, Rajiv Joseph
   PRODUZIONE: Lionsgate, The Montecito Picture Company, OddLot Entertainment
   PAESE: USA



Kevin Costner, Jennifer Garner, Tom Welling, Terry Crews



Il film è incentrato sul manager dei Cleveland Browns squadra di football in difficoltà, che cerca di assicurarsi il miglior giocatore sul mercato nel giorno del reclutamento.



At the NFL Draft, general manager Sonny Weaver has the opportunity to rebuild his team when he trades for the number one pick. He must decide what he's willing to sacrifice on a life-changing day for a few hundred young men with NFL dreams.










[spoiler]
General
Unique ID                                : 176742060473213578269179712346183285912 (0x84F7485D0C65116ABC193A176255BC9
Complete name                            : Draft Day (2014).H264.ita.eng.sub.ita.iCV-MIRCrew-REPACK.mkv
Format                                   : Matroska
Format version                           : Version 2
File size                                : 1.31 GiB
Duration                                 : 1h 45mn
Overall bit rate                         : 1 779 Kbps
Movie name                               : Draft Day (2014).Title2
Encoded date                             : UTC 2016-12-22 21:10:39
Writing application                      : DVDFab 9.1.5.7
Writing library                          : libebml v0.7.8 + libmatroska v0.8.1

Video
ID                                       : 1
Format                                   : AVC
Format/Info                              : Advanced Video Codec
Format profile                           : High@L4.1
Format settings, CABAC                   : Yes
Format settings, ReFrames                : 2 frames
Codec ID                                 : V_MPEG4/ISO/AVC
Duration                                 : 1h 45mn
Bit rate                                 : 1 103 Kbps
Width                                    : 688 pixels
Height                                   : 288 pixels
Display aspect ratio                     : 2.40:1
Frame rate                               : 25.000 fps
Color space                              : YUV
Chroma subsampling                       : 4:2:0
Bit depth                                : 8 bits
Scan type                                : Progressive
Bits/(Pixel*Frame)                       : 0.223
Stream size                              : 832 MiB (62%)
Writing library                          : x264 core
Default                                  : Yes
Forced                                   : No
Color primaries                          : BT.601-6 525, BT.1358 525, BT.1700 NTSC, SMPTE 170M
Transfer characteristics                 : BT.709-5, BT.1361
Matrix coefficients                      : BT.601-6 525, BT.1358 525, BT.1700 NTSC, SMPTE 170M

Audio #1
ID                                       : 2
Format                                   : AC-3
Format/Info                              : Audio Coding 3
Mode extension                           : CM (complete main)
Codec ID                                 : A_AC3
Duration                                 : 1h 45mn
Bit rate mode                            : Constant
Bit rate                                 : 448 Kbps
Channel(s)                               : 6 channels
Channel positions                        : Front: L C R, Side: L R, LFE
Sampling rate                            : 48.0 KHz
Bit depth                                : 16 bits
Compression mode                         : Lossy
Stream size                              : 338 MiB (25%)
Language                                 : Italian
Default                                  : Yes
Forced                                   : No

Audio #2
ID                                       : 3
Format                                   : AC-3
Format/Info                              : Audio Coding 3
Mode extension                           : CM (complete main)
Codec ID                                 : A_AC3
Duration                                 : 1h 45mn
Bit rate mode                            : Constant
Bit rate                                 : 192 Kbps
Channel(s)                               : 2 channels
Channel positions                        : Front: L R
Sampling rate                            : 48.0 KHz
Bit depth                                : 16 bits
Compression mode                         : Lossy
Stream size                              : 145 MiB (11%)
Language                                 : English
Default                                  : No
Forced                                   : No

Text
ID                                       : 4
Format                                   : VobSub
Codec ID                                 : S_VOBSUB
Codec ID/Info                            : The same subtitle format used on DVDs
Language                                 : Italian
Default                                  : Yes
Forced                                   : No

Menu
00:00:00.000                             : en01)00:00:00:000
00:16:42.240                             : en02)00:16:42:240
00:37:36.960                             : en03)00:37:36:960
00:55:08.160                             : en04)00:55:08:160
01:11:46.080                             : en05)01:11:46:080
01:27:24.960                             : en06)01:27:24:960
01:45:28.800                             : en07)01:45:28:800





[/spoiler]

[/center]

Info: Per scaricare devi usare un client come uTorrent, o Azureus
AnnounceURL
udp://tracker.coppersurfer.tk:6969/announce
Hash d4ea366bac8c3119c465b7bef82968b6d113f4cf
Peers seeds: 60 , leech: 7
Size 1.31 GB
Completato 735x
Aggiunto 23.12.16 - 15:12:39
Uploader   robbyrs
Votazione (Voti: 1)


Condividi questo bittorrent:


html/blog:


bbcode/forum:




Aggiungi Commento