* Dettagli Torrent   globale  | Commenti (0) 


- Frank (2014).H264.Italian.English.Ac3.5.1.sub.ita.iCV-MIRCrew -


Download via torrent:
Categoria bittorrent BDRip
Descrizione
Frank (2014).H264.Italian.English.Ac3.5.1.sub.ita.iCV-MIRCrew

[center]by www.icv-crew.org



NO FOUND ONLY ORIGINAL RELEASE



My release is always in double track audio italian and Original audio
for select it use VLC or dvd player home
not use wmp

Frank (2014)

[img]https://extraimage.net/images/2016/12/28/4e18dfd5c3566ddfab9b827d59acdcff.png[/img]





Titolo originale Frank
Lingua originale inglese
Paese di produzione Regno Unito, Irlanda
Anno 2014
Durata 95 min
Genere commedia, drammatico
Regia Lenny Abrahamson
Sceneggiatura Jon Ronson, Peter Straughan
Casa di produzione Film4, Element Pictures, Runaway Fridge Productions, Indieproduction
Distribuzione (Italia) I Wonder Pictures
Fotografia James Mather
Montaggio Nathan Nugent
Musiche Stephen Rennicks




   Michael Fassbender: Frank
   Domhnall Gleeson: Jon
   Maggie Gyllenhaal: Clara
   Scoot McNairy: Don
   Tess Harper: madre di Frank




Jon, un aspirante cantautore, assiste a una strana scena mentre cammina lungo la spiaggia della sua città: un uomo cerca di affogarsi e viene fermato dalle forze dell'ordine, per poi essere portato in ospedale. Sul luogo c'è anche Don, il quale spiega a Jon che l'uomo è il tastierista di gruppo sperimentale che gestisce, i Soronprfbs. Sentendo questo, Jon afferma di essere anche lui un tastierista e, poiché il gruppo ha un concerto in programma



Jon, a young wanna-be musician, discovers he's bitten off more than he can chew when he joins an eccentric pop band led by the mysterious and enigmatic Frank.



[img]https://extraimage.net/images/2016/12/28/ff4d754e9bcc3e5071fdf1d8910d1a5a.th.png[/img] [img]https://extraimage.net/images/2016/12/28/2f99e0adb4ef3d83f7b45ebf2dd4ee86.th.png[/img]






[spoiler]
General
Unique ID                                : 234321577047375815819043183358917199819 (0xB048B1B61E57CC1891E6A92333C3C7CB)
Complete name                            : Frank (2014).H264.ita.eng.sub.ita.iCV-MIRCrew.mkv
Format                                   : Matroska
Format version                           : Version 2
File size                                : 1.40 GiB
Duration                                 : 1h 32mn
Overall bit rate                         : 2 178 Kbps
Movie name                               : FRANK.Title2
Encoded date                             : UTC 2016-12-26 18:28:45
Writing application                      : DVDFab 9.1.5.7
Writing library                          : libebml v0.7.8 + libmatroska v0.8.1

Video
ID                                       : 1
Format                                   : AVC
Format/Info                              : Advanced Video Codec
Format profile                           : High@L4.1
Format settings, CABAC                   : Yes
Format settings, ReFrames                : 2 frames
Codec ID                                 : V_MPEG4/ISO/AVC
Duration                                 : 1h 32mn
Bit rate                                 : 1 239 Kbps
Width                                    : 720 pixels
Height                                   : 300 pixels
Display aspect ratio                     : 2.40:1
Frame rate                               : 25.000 fps
Color space                              : YUV
Chroma subsampling                       : 4:2:0
Bit depth                                : 8 bits
Scan type                                : Progressive
Bits/(Pixel*Frame)                       : 0.229
Stream size                              : 817 MiB (57%)
Writing library                          : x264 core
Default                                  : Yes
Forced                                   : No
Color primaries                          : BT.601-6 525, BT.1358 525, BT.1700 NTSC, SMPTE 170M
Transfer characteristics                 : BT.709-5, BT.1361
Matrix coefficients                      : BT.601-6 525, BT.1358 525, BT.1700 NTSC, SMPTE 170M

Audio #1
ID                                       : 2
Format                                   : AC-3
Format/Info                              : Audio Coding 3
Mode extension                           : CM (complete main)
Codec ID                                 : A_AC3
Duration                                 : 1h 32mn
Bit rate mode                            : Constant
Bit rate                                 : 448 Kbps
Channel(s)                               : 6 channels
Channel positions                        : Front: L C R, Side: L R, LFE
Sampling rate                            : 48.0 KHz
Bit depth                                : 16 bits
Compression mode                         : Lossy
Stream size                              : 296 MiB (21%)
Language                                 : Italian
Default                                  : Yes
Forced                                   : No

Audio #2
ID                                       : 3
Format                                   : AC-3
Format/Info                              : Audio Coding 3
Mode extension                           : CM (complete main)
Codec ID                                 : A_AC3
Duration                                 : 1h 32mn
Bit rate mode                            : Constant
Bit rate                                 : 448 Kbps
Channel(s)                               : 6 channels
Channel positions                        : Front: L C R, Side: L R, LFE
Sampling rate                            : 48.0 KHz
Bit depth                                : 16 bits
Compression mode                         : Lossy
Stream size                              : 296 MiB (21%)
Language                                 : English
Default                                  : No
Forced                                   : No

Text #1
ID                                       : 4
Format                                   : VobSub
Codec ID                                 : S_VOBSUB
Codec ID/Info                            : The same subtitle format used on DVDs
Language                                 : Italian
Default                                  : Yes
Forced                                   : No

Text #2
ID                                       : 5
Format                                   : VobSub
Codec ID                                 : S_VOBSUB
Codec ID/Info                            : The same subtitle format used on DVDs
Language                                 : Italian
Default                                  : No
Forced                                   : No

Menu
00:00:00.000                             : en01)00:00:00:000
00:00:54.920                             : en02)00:00:54:920
00:10:26.920                             : en03)00:10:26:920
00:20:37.360                             : en04)00:20:37:360
00:29:49.800                             : en05)00:29:49:800
00:40:08.640                             : en06)00:40:08:640
00:48:59.600                             : en07)00:48:59:600
00:59:15.600                             : en000:59:15:600
01:07:54.360                             : en09)01:07:54:360
01:16:13.200                             : en10)01:16:13:200
01:25:41.200                             : en11)01:25:41:200




[/spoiler]

[/center]

Info: Per scaricare devi usare un client come uTorrent, o Azureus
AnnounceURL
udp://tracker.coppersurfer.tk:6969/announce
Hash c031c83884379af869f0456309f604c228513837
Peers seeds: 51 , leech: 6
Size 1.40 GB
Completato 802x
Aggiunto 28.12.16 - 13:12:02
Uploader   robbyrs
Votazione (Voti: 0)


Condividi questo bittorrent:


html/blog:


bbcode/forum:




Aggiungi Commento