* Dettagli Torrent   globale  | Commenti (0) 


- Hercules - Il guerriero - Extended (2014).H264.Italian.English.Ac3.5.1.sub.ita.iCV-MIRCrew -


Download via torrent:
Categoria bittorrent BDRip
Descrizione
Hercules - Il guerriero - Extended (2014).H264.Italian.English.Ac3.5.1.sub.ita.eng.iCV-MIRCrew

[center]



NO FOUND ONLY ORIGINAL RELEASE



My release is always in double track audio italian and Original audio
for select it use VLC or dvd player home
not use wmp

Hercules Il guerriero - Extended (2014)







Titolo originale Hercules
Lingua originale inglese
Paese di produzione Stati Uniti d'America
Anno 2014
Durata 98 min (versione cinematografica)
101 min (versione estesa)
Audio Dolby Digital, SDDS, Dolby Atmos
Rapporto 2,35 : 1
Genere azione, avventura, fantastico, epico
Regia Brett Ratner
Soggetto Admira Wijaya e Steve Moore
Sceneggiatura Ryan Condal, Evan Spiliotopoulos
Produttore Sarah Aubrey, Beau Flynn, Barry Levine, Brett Ratner
Produttore esecutivo Peter Berg, Jesse Berger, Ross Fanger, Stephen Jones
Casa di produzione Film 44, Metro-Goldwyn-Mayer, Nimar Studios, Paramount Pictures, Radical Studios, Spyglass Entertainment
Distribuzione (Italia) Universal Pictures
Fotografia Dante Spinotti
Montaggio Mark Helfrich
Effetti speciali Csaba Bagossy, Florin Daniel Catrinoiu, Aaron Cox, Palagyi Fefe, Szilard Gergely, Gergely Glovotz, Gergely Laszlo, Declan O'Donnell, Dave Roddham, Péter Szlávi
Musiche Fernando Velázquez, Johannes Vogel
Scenografia Jean-Vincent Puzos




   Dwayne Johnson: Hercules
   Ian McShane: Anfiarao
   John Hurt: re Cotys
   Rufus Sewell: Autolico
   Irina Shayk: Megara
   Joe Anderson: Finea
   Ingrid Bolsø Berdal: Atalanta
   Rebecca Ferguson: Ergenia
   Peter Mullan: generale Sitacle
   Tobias Santelmann: Reso
   Aksel Hennie: Tideo
   Barbara Palvin: Antimaca
   Reece Ritchie: Iolao
   Joseph Fiennes: re Euristeo
   Robert Maillet: boia
   Ian Whyte: capo dei Bessi




Hercules, nella leggenda un semidio figlio di Zeus ma in realtà un orfano ateniese, mortale ma dotato di una forza sovrumana, reduce dalle dodici fatiche affidategli dal re di Micene Euristeo per espiare il massacro della sua stessa famiglia, guida un gruppo di fedeli ed esperti mercenari: l'ironico veggente argivo Anfiarao, il ladro spartano Autolico, l'amazzone scitica Atalanta e il selvaggio e taciturno tebano Tideo, oltre al proprio nipote Iolao, promoter dell'eroe e cantore delle sue gesta.



aving endured his legendary twelve labors, Hercules, the Greek demigod, has his life as a sword-for-hire tested when the King of Thrace and his daughter seek his aid in defeating a tyrannical warlord.  










[spoiler]
General
Unique ID                                : 189225690579857979289000005146161319815 (0x8E5B8AD8FD889A1410BE966BB5E20F87)
Complete name                            : Hercules Il guerriero - Extended (2014).Ita.eng.sub.ita.eng.iCV-MIRCrew.mkv
Format                                   : Matroska
Format version                           : Version 2
File size                                : 1.54 GiB
Duration                                 : 1h 41mn
Overall bit rate                         : 2 171 Kbps
Movie name                               : VISIT www.icv-crew.org
Encoded date                             : UTC 2014-11-26 23:13:54
Writing application                      : Lavf54.63.100
Writing library                          : Lavf54.63.100
COPYRIGHT                                : robbyrs

Video
ID                                       : 1
Format                                   : AVC
Format/Info                              : Advanced Video Codec
Format profile                           : Main@L4.1
Format settings, CABAC                   : Yes
Format settings, ReFrames                : 2 frames
Codec ID                                 : V_MPEG4/ISO/AVC
Duration                                 : 1h 41mn
Bit rate                                 : 1 270 Kbps
Width                                    : 688 pixels
Height                                   : 290 pixels
Display aspect ratio                     : 2.40:1
Frame rate mode                          : Variable
Frame rate                               : 23.976 fps
Color space                              : YUV
Chroma subsampling                       : 4:2:0
Bit depth                                : 8 bits
Scan type                                : Progressive
Bits/(Pixel*Frame)                       : 0.265
Stream size                              : 895 MiB (57%)
Writing library                          : x264 core 130 r2273
Encoding settings                        : cabac=1 / ref=2 / deblock=1:0:0 / analyse=0x1:0x131 / me=hex / subme=7 / psy=1 / psy_rd=1.00:0.00 / mixed_ref=0 / me_range=16 / chroma_me=1 / trellis=1 / 8x8dct=0 / cqm=0 / deadzone=21,11 / fast_pskip=1 / chroma_qp_offset=-2 / threads=12 / lookahead_threads=2 / sliced_threads=0 / nr=0 / decimate=1 / interlaced=0 / bluray_compat=0 / constrained_intra=0 / bframes=3 / b_pyramid=0 / b_adapt=1 / b_bias=0 / direct=3 / weightb=1 / open_gop=0 / weightp=2 / keyint=230 / keyint_min=23 / scenecut=40 / intra_refresh=0 / rc_lookahead=40 / rc=2pass / mbtree=1 / bitrate=1270 / ratetol=1.0 / qcomp=0.60 / qpmin=10 / qpmax=69 / qpstep=4 / cplxblur=20.0 / qblur=0.5 / vbv_maxrate=24000 / vbv_bufsize=24000 / nal_hrd=none / ip_ratio=1.40 / aq=1:1.00
Default                                  : Yes
Forced                                   : No
DURATION                                 : 01:41:35.673000000
NUMBER_OF_FRAMES                         : 146140
NUMBER_OF_BYTES                          : 2126999059
_STATISTICS_WRITING_APP                  : mkvmerge v7.3.0 ('Nouages') 64bit built on Oct 22 2014 18:53:34
_STATISTICS_WRITING_DATE_UTC             : 2014-11-26 23:13:54
_STATISTICS_TAGS                         : BPS DURATION NUMBER_OF_FRAMES NUMBER_OF_BYTES

Audio #1
ID                                       : 2
Format                                   : AC-3
Format/Info                              : Audio Coding 3
Mode extension                           : CM (complete main)
Codec ID                                 : A_AC3
Duration                                 : 1h 41mn
Bit rate mode                            : Constant
Bit rate                                 : 448 Kbps
Channel(s)                               : 6 channels
Channel positions                        : Front: L C R, Side: L R, LFE
Sampling rate                            : 48.0 KHz
Bit depth                                : 16 bits
Compression mode                         : Lossy
Delay relative to video                  : 1mn 5s
Stream size                              : 326 MiB (21%)
Language                                 : Italian
Default                                  : Yes
Forced                                   : No
DURATION                                 : 01:41:36.160000000
NUMBER_OF_FRAMES                         : 190505
NUMBER_OF_BYTES                          : 341384960
_STATISTICS_WRITING_APP                  : mkvmerge v7.3.0 ('Nouages') 64bit built on Oct 22 2014 18:53:34
_STATISTICS_WRITING_DATE_UTC             : 2014-11-26 23:13:54
_STATISTICS_TAGS                         : BPS DURATION NUMBER_OF_FRAMES NUMBER_OF_BYTES

Audio #2
ID                                       : 3
Format                                   : AC-3
Format/Info                              : Audio Coding 3
Mode extension                           : CM (complete main)
Codec ID                                 : A_AC3
Duration                                 : 1h 41mn
Bit rate mode                            : Constant
Bit rate                                 : 448 Kbps
Channel(s)                               : 6 channels
Channel positions                        : Front: L C R, Side: L R, LFE
Sampling rate                            : 48.0 KHz
Bit depth                                : 16 bits
Compression mode                         : Lossy
Delay relative to video                  : 1mn 5s
Stream size                              : 326 MiB (21%)
Language                                 : English
Default                                  : No
Forced                                   : No
DURATION                                 : 01:41:35.776000000
NUMBER_OF_FRAMES                         : 190493
NUMBER_OF_BYTES                          : 341363456
_STATISTICS_WRITING_APP                  : mkvmerge v7.3.0 ('Nouages') 64bit built on Oct 22 2014 18:53:34
_STATISTICS_WRITING_DATE_UTC             : 2014-11-26 23:13:54
_STATISTICS_TAGS                         : BPS DURATION NUMBER_OF_FRAMES NUMBER_OF_BYTES

Text #1
ID                                       : 4
Format                                   : ASS
Codec ID                                 : S_TEXT/ASS
Codec ID/Info                            : Advanced Sub Station Alpha
Compression mode                         : Lossless
Language                                 : Italian
Default                                  : No
Forced                                   : No
DURATION                                 : 01:35:33.043000000
NUMBER_OF_FRAMES                         : 969
NUMBER_OF_BYTES                          : 53133
_STATISTICS_WRITING_APP                  : mkvmerge v7.3.0 ('Nouages') 64bit built on Oct 22 2014 18:53:34
_STATISTICS_WRITING_DATE_UTC             : 2014-11-26 23:13:54
_STATISTICS_TAGS                         : BPS DURATION NUMBER_OF_FRAMES NUMBER_OF_BYTES

Text #2
ID                                       : 5
Format                                   : ASS
Codec ID                                 : S_TEXT/ASS
Codec ID/Info                            : Advanced Sub Station Alpha
Compression mode                         : Lossless
Language                                 : English
Default                                  : No
Forced                                   : No
DURATION                                 : 01:33:43.910000000
NUMBER_OF_FRAMES                         : 1159
NUMBER_OF_BYTES                          : 61180
_STATISTICS_WRITING_APP                  : mkvmerge v7.3.0 ('Nouages') 64bit built on Oct 22 2014 18:53:34
_STATISTICS_WRITING_DATE_UTC             : 2014-11-26 23:13:54
_STATISTICS_TAGS                         : BPS DURATION NUMBER_OF_FRAMES NUMBER_OF_BYTES

Menu
00:00:00.000                             : :00:00:00.000
00:08:10.865                             : :00:08:10.782
00:14:15.896                             : :00:14:15.813
00:23:38.333                             : :00:23:38.250
00:31:23.840                             : :00:31:23.757
00:41:12.219                             : :00:41:12.136
00:51:34.424                             : :00:51:34.341
00:57:31.364                             : :00:57:31.281
01:05:57.703                             : :01:05:57.620
01:16:07.938                             : :01:16:07.855
01:24:28.980                             : :01:24:28.897
01:34:24.784                             : :01:34:24.701



[/spoiler]

[/center]

Info: Per scaricare devi usare un client come uTorrent o Transmission
AnnounceURL
udp://tracker.coppersurfer.tk:6969/announce
Hash 6c5b57c1f802cdb1aba1196d9cbb7024197e91f6
Peers seeds: 108 , leech: 23
Size 1.54 GB
Completato 1770x
Aggiunto 28.12.16 - 13:12:53
Uploader   robbyrs
Votazione (Voti: 1)


Condividi questo bittorrent:


html/blog:


bbcode/forum:




Aggiungi Commento