* Dettagli Torrent   globale  | Commenti (0) 


- Precious (2009) Portable.Mp4.Italian.English.Aac.iCV-MIRCrew -


Download via torrent:
Categoria bittorrent BDRip
Descrizione
Precious (2009) Portable.Mp4.Italian.English.Aac.iCV-MIRCrew

[center]


NO FOUND ONLY ORIGINAL RELEASE



My release is always in double track audio italian and Original audio
for select it use VLC or dvd player home
not use wmp

Precious (2009) Portable







Titolo originale Precious
Lingua originale Inglese
Paese di produzione USA
Anno 2009
Durata 110 min
Rapporto 1,85 : 1
Genere drammatico
Regia Lee Daniels
Soggetto Sapphire (romanzo)
Sceneggiatura Geoffrey Fletcher
Produttore Lee Daniels, Gary Magness, Sarah Siegel-Magness
Produttore esecutivo Tyler Perry, Oprah Winfrey, Lisa Cortes, Tom Heller
Casa di produzione Lee Daniels Entertainment
Smokewood Entertainment Group
Distribuzione (Italia) 01 Distribution
Fotografia Andrew Dunn
Montaggio Joe Klotz
Musiche Mario Grigorov
Scenografia Roshelle Berliner



Gabourey Sidibe: Clareece 'Precious' Jones
Mo'Nique: Mary Lee Johnston
Paula Patton: Miss Rain
Mariah Carey: Mrs. Weiss
Lenny Kravitz: John McFadden
Sherri Shepherd: Cornrows
Nealla Gordon: Sondra Lichtenstein
Stephanie Andujar: Rita Romero



Nella Harlem povera e disagiata degli anni ottanta, vive l'adolescente Precious, obesa e semianalfabeta. Violentata dal padre, ha dato alla luce una bambina con la sindrome di Down, e come se non bastasse deve sopportare le quotidiane umiliazioni da parte della madre Mary, violenta e disoccupata. Quando la scuola scopre che Precious è nuovamente incinta, sempre a causa delle violenze del padre, la espelle. Grazie all'interessamento della direttrice, la ragazza viene mandata in un istituto per ragazzi con problemi sociali.........



In New York City's Harlem circa 1987, an overweight, abused, illiterate teen who is pregnant with her second child is invited to enroll in an alternative school in hopes that her life can head in a new direction. ...........










[spoiler]
General
Complete name                            : Precious (2009) Portable.ita.eng.iCV-MIRCrew.mp4
Format                                   : MPEG-4
Format profile                           : Base Media / Version 2
Codec ID                                 : mp42
File size                                : 584 MiB
Duration                                 : 1h 49mn
Overall bit rate mode                    : Variable
Overall bit rate                         : 745 Kbps
Encoded date                             : UTC 2016-12-26 21:12:55
Tagged date                              : UTC 2016-12-26 21:12:55
Writing application                      : HandBrake 0.10.5 2016021100

Video
ID                                       : 1
Format                                   : AVC
Format/Info                              : Advanced Video Codec
Format profile                           : Main@L4.0
Format settings, CABAC                   : Yes
Format settings, ReFrames                : 4 frames
Codec ID                                 : avc1
Codec ID/Info                            : Advanced Video Coding
Duration                                 : 1h 49mn
Bit rate                                 : 480 Kbps
Width                                    : 320 pixels
Height                                   : 174 pixels
Display aspect ratio                     : 1.854
Original display aspect ratio            : 1.853
Frame rate mode                          : Variable
Frame rate                               : 24.000 fps
Minimum frame rate                       : 23.810 fps
Maximum frame rate                       : 24.390 fps
Color space                              : YUV
Chroma subsampling                       : 4:2:0
Bit depth                                : 8 bits
Scan type                                : Progressive
Bits/(Pixel*Frame)                       : 0.359
Stream size                              : 375 MiB (64%)
Writing library                          : x264 core 142 r2479 dd79a61
Encoding settings                        : cabac=1 / ref=1 / deblock=1:0:0 / analyse=0x1:0x111 / me=hex / subme=2 / psy=1 / psy_rd=1.00:0.00 / mixed_ref=0 / me_range=16 / chroma_me=1 / trellis=0 / 8x8dct=0 / cqm=0 / deadzone=21,11 / fast_pskip=1 / chroma_qp_offset=0 / threads=12 / lookahead_threads=1 / sliced_threads=0 / nr=0 / decimate=1 / interlaced=0 / bluray_compat=0 / constrained_intra=0 / bframes=3 / b_pyramid=2 / b_adapt=1 / b_bias=0 / direct=1 / weightb=1 / open_gop=0 / weightp=1 / keyint=240 / keyint_min=24 / scenecut=40 / intra_refresh=0 / rc_lookahead=10 / rc=abr / mbtree=1 / bitrate=480 / ratetol=1.0 / qcomp=0.60 / qpmin=0 / qpmax=69 / qpstep=4 / vbv_maxrate=20000 / vbv_bufsize=25000 / nal_hrd=none / filler=0 / ip_ratio=1.40 / aq=1:1.00
Encoded date                             : UTC 2016-12-26 21:12:55
Tagged date                              : UTC 2016-12-26 21:12:55
Color primaries                          : BT.709-5, BT.1361, IEC 61966-2-4, SMPTE RP177
Transfer characteristics                 : BT.709-5, BT.1361
Matrix coefficients                      : BT.709-5, BT.1361, IEC 61966-2-4 709, SMPTE RP177

Audio #1
ID                                       : 2
Format                                   : AAC
Format/Info                              : Advanced Audio Codec
Format profile                           : LC
Codec ID                                 : 40
Duration                                 : 1h 49mn
Bit rate mode                            : Variable
Bit rate                                 : 128 Kbps
Channel(s)                               : 2 channels
Channel positions                        : Front: L R
Sampling rate                            : 48.0 KHz
Compression mode                         : Lossy
Delay relative to video                  : -7s 470ms
Stream size                              : 101 MiB (17%)
Title                                    : Stereo
Language                                 : English
Encoded date                             : UTC 2016-12-26 21:12:55
Tagged date                              : UTC 2016-12-26 21:12:55

Audio #2
ID                                       : 3
Format                                   : AAC
Format/Info                              : Advanced Audio Codec
Format profile                           : LC
Codec ID                                 : 40
Duration                                 : 1h 49mn
Bit rate mode                            : Variable
Bit rate                                 : 128 Kbps
Channel(s)                               : 2 channels
Channel positions                        : Front: L R
Sampling rate                            : 48.0 KHz
Compression mode                         : Lossy
Delay relative to video                  : -7s 470ms
Stream size                              : 101 MiB (17%)
Title                                    : Stereo
Language                                 : Italian
Encoded date                             : UTC 2016-12-26 21:12:55
Tagged date                              : UTC 2016-12-26 21:12:55

Text
ID                                       : 4
Format                                   : Apple text
Codec ID                                 : text
Duration                                 : 1h 49mn
Bit rate mode                            : Constant
Bit rate                                 : 1 bps
Delay relative to video                  : -7s 470ms
Stream size                              : 442 Bytes (0%)
Language                                 : English
Encoded date                             : UTC 2016-12-26 21:12:55
Tagged date                              : UTC 2016-12-26 21:12:55




[/spoiler]

[/center]

Info: Per scaricare devi usare un client come uTorrent o Transmission
AnnounceURL
udp://tracker.coppersurfer.tk:6969/announce
Hash 3e7c075e67d446ca8844af6a02f2818159be4616
Peers seeds: 15 , leech: 9
Size 584.26 MB
Completato 132x
Aggiunto 31.12.16 - 09:12:09
Uploader   robbyrs
Votazione (Voti: 0)


Condividi questo bittorrent:


html/blog:


bbcode/forum:




Aggiungi Commento