* Dettagli Torrent   globale  | Commenti (0) 


- Cop Car (2015).H264.Italian.English.Ac3.5.1.sub.ita.iCV-MIRCrew -


Download via torrent:
Categoria bittorrent BDRip
Descrizione
Cop Car (2015).H264.Italian.English.Ac3.5.1.sub.ita.iCV-MIRCrew

[center]by www.icv-crew.org



NO FOUND ONLY ORIGINAL RELEASE



My release is always in double track audio italian and Original audio
for select it use VLC or dvd player home
not use wmp

Cop Car (2015)







   GENERE: Thriller
   ANNO: 2015
   REGIA: Jon Watts
   SCENEGGIATURA: Christopher D. Ford, Jon Watts
   FOTOGRAFIA: Matthew J. Lloyd, Larkin Seiple
   MONTAGGIO: Megan Brooks, Andrew Hasse
   PRODUZIONE: Audax Films, Dark Arts Film, Park Pictures
   PAESE: USA
   DURATA: 86 Min



Kevin Bacon, Shea Whigham, Camryn Manheim, James Freedson-Jackson, Hays Wellford



Il film racconta di due ragazzini di 10 anni che, mentre giocano tra i campi, scoprono un'auto della polizia abbandonata e, ovviamente, decidono di rubarla per andare a farsi un giro. Il problema è che nel bagagliaio di quell'auto sono contenuti i panni sporchi del corrotto sceriffo locale..............



A pair of ten-year-olds find an abandoned cop car in a field. When they take it for a joyride, it seems like they could kill themselves at any moment. But things only get worse when the small town sheriff goes looking for his missing car. The kids find themselves in the center of a deadly game of cat and mouse they don't understand and the only way out is to go as fast as their cop car can take them.










[spoiler]
General
Unique ID                                : 219436904307159050892281029287300644776 (0xA51602AF87BFF0CFA4AA48D1CBB93FA
Complete name                            : Cop Car (2015).ita.eng.sub.ita.iCV-MIRCrew.mkv
Format                                   : Matroska
Format version                           : Version 2
File size                                : 1.29 GiB
Duration                                 : 1h 27mn
Overall bit rate                         : 2 095 Kbps
Movie name                               : VISIT www.icv-crew.org
Encoded date                             : UTC 2016-12-30 16:52:28
Writing application                      : Lavf54.63.100
Writing library                          : Lavf54.63.100
COPYRIGHT                                : robbyrs

Video
ID                                       : 1
Format                                   : AVC
Format/Info                              : Advanced Video Codec
Format profile                           : Main@L4.0
Format settings, CABAC                   : Yes
Format settings, ReFrames                : 4 frames
Codec ID                                 : V_MPEG4/ISO/AVC
Duration                                 : 1h 27mn
Bit rate                                 : 1 275 Kbps
Width                                    : 688 pixels
Height                                   : 288 pixels
Display aspect ratio                     : 2.40:1
Original display aspect ratio            : 2.40:1
Frame rate mode                          : Variable
Frame rate                               : 23.976 fps
Color space                              : YUV
Chroma subsampling                       : 4:2:0
Bit depth                                : 8 bits
Scan type                                : Progressive
Bits/(Pixel*Frame)                       : 0.268
Stream size                              : 769 MiB (58%)
Writing library                          : x264 core 142 r2479 dd79a61
Encoding settings                        : cabac=1 / ref=1 / deblock=1:0:0 / analyse=0x1:0x111 / me=hex / subme=2 / psy=1 / psy_rd=1.00:0.00 / mixed_ref=0 / me_range=16 / chroma_me=1 / trellis=0 / 8x8dct=0 / cqm=0 / deadzone=21,11 / fast_pskip=1 / chroma_qp_offset=0 / threads=12 / lookahead_threads=2 / sliced_threads=0 / nr=0 / decimate=1 / interlaced=0 / bluray_compat=0 / constrained_intra=0 / bframes=3 / b_pyramid=2 / b_adapt=1 / b_bias=0 / direct=1 / weightb=1 / open_gop=0 / weightp=1 / keyint=240 / keyint_min=24 / scenecut=40 / intra_refresh=0 / rc_lookahead=10 / rc=abr / mbtree=1 / bitrate=1275 / ratetol=1.0 / qcomp=0.60 / qpmin=0 / qpmax=69 / qpstep=4 / vbv_maxrate=20000 / vbv_bufsize=25000 / nal_hrd=none / filler=0 / ip_ratio=1.40 / aq=1:1.00
Default                                  : Yes
Forced                                   : No
Color primaries                          : BT.709-5, BT.1361, IEC 61966-2-4, SMPTE RP177
Transfer characteristics                 : BT.709-5, BT.1361
Matrix coefficients                      : BT.709-5, BT.1361, IEC 61966-2-4 709, SMPTE RP177

Audio #1
ID                                       : 2
Format                                   : AC-3
Format/Info                              : Audio Coding 3
Mode extension                           : CM (complete main)
Codec ID                                 : A_AC3
Duration                                 : 1h 27mn
Bit rate mode                            : Constant
Bit rate                                 : 448 Kbps
Channel(s)                               : 6 channels
Channel positions                        : Front: L C R, Side: L R, LFE
Sampling rate                            : 48.0 KHz
Bit depth                                : 16 bits
Compression mode                         : Lossy
Delay relative to video                  : 1mn 5s
Stream size                              : 282 MiB (21%)
Language                                 : Italian
Default                                  : Yes
Forced                                   : No

Audio #2
ID                                       : 3
Format                                   : AC-3
Format/Info                              : Audio Coding 3
Mode extension                           : CM (complete main)
Codec ID                                 : A_AC3
Duration                                 : 1h 27mn
Bit rate mode                            : Constant
Bit rate                                 : 384 Kbps
Channel(s)                               : 6 channels
Channel positions                        : Front: L C R, Side: L R, LFE
Sampling rate                            : 48.0 KHz
Bit depth                                : 16 bits
Compression mode                         : Lossy
Delay relative to video                  : 1mn 5s
Stream size                              : 242 MiB (18%)
Language                                 : English
Default                                  : No
Forced                                   : No

Text
ID                                       : 4
Format                                   : ASS
Codec ID                                 : S_TEXT/ASS
Codec ID/Info                            : Advanced Sub Station Alpha
Compression mode                         : Lossless
Language                                 : Italian
Default                                  : No
Forced                                   : No

Menu
00:00:00.000                             : :00:00:00.000
00:05:28.369                             : :00:05:28.286
00:10:07.648                             : :00:10:07.565
00:14:33.122                             : :00:14:33.039
00:20:34.024                             : :00:20:33.941
00:23:46.800                             : :00:23:46.717
00:27:51.628                             : :00:27:51.545
00:30:35.291                             : :00:30:35.208
00:34:46.751                             : :00:34:46.668
00:40:16.414                             : :00:40:16.331
00:43:34.737                             : :00:43:34.487
00:48:27.696                             : :00:48:27.613
00:52:53.754                             : :00:52:53.670
00:56:34.599                             : :00:56:34.516
01:00:40.803                             : :01:00:40.720
01:05:07.403                             : :01:05:07.320
01:09:01.220                             : :01:09:01.137
01:15:33.237                             : :01:15:33.154
01:19:46.490                             : :01:19:46.240
01:23:46.646                             : :01:23:46.480



[/spoiler]

[/center]

Info: Per scaricare devi usare un client come uTorrent o Transmission
AnnounceURL
udp://tracker.coppersurfer.tk:6969/announce
Hash 13edd8d5de39b9b8ea7a76212c5d26cf0e0b0c4e
Peers seeds: 135 , leech: 24
Size 1.29 GB
Completato 1669x
Aggiunto 31.12.16 - 11:12:40
Uploader   robbyrs
Votazione (Voti: 0)


Condividi questo bittorrent:


html/blog:


bbcode/forum:




Aggiungi Commento