* Dettagli Torrent   globale  | Commenti (0) 


- The Fall S03e02[BDMux - 720p - H264 - Ita Eng Ac3 - Sub Ita Eng] Bluray -


Download via torrent:
Categoria bittorrent SerieTv
Descrizione
[center]

THE FALL
STAGIONE 3
BDMUX 720p

Dual Language ITA - ENG
Sub ITA - ENG
Trovi tutte le nostre serie su
IL CORSARO VERDE
www.icv-crew.org



.: Dati Serie :.


Nazione: Regno Unito, Irlanda
Anno: 2016
Genere: drammatico, thriller
Stagione: 3
Episodi: 8
Durata: 60 min circa
Lingua: ITA
Cast:
• Gillian Anderson: Stella Gibson
• Jamie Dornan: Paul Spector
• John Lynch: ACC Jim Burns
• Laura Donnelly: Sarah Kay
• Bronaugh Waugh: Sally-Ann Spector
• Michael McElhatton: Rob Breedlove
• Ben Peel: James Olson
• Frank McCusker: Garrett Brink
• Aisling Franciosi: Katie Benedetto
• Colin Morgan: Tom Anderson

Two hunters, one cold, deliberate and highly efficient and the other, a strong, athletic man with a wife. One is a serial killer, and the other is a cop.

Torna, dopo due anni con la terza stagione, la serie ambientata in Irlanda del Nord e che ha per protagonisti Gillian Anderson, nei panni del detective sovrintendente Stella Gibson, e Jamie Dornan in quelli del serial killer, "strangolatore di Belfast", Paul Spector.

.: Screenshot :.



.: Caratteristiche Tecniche :.[/center]
[spoiler]
The.Fall.3x01.Silence.and.Suffering.ITA.ENG.720p.BDMux.x264-Morpheus.mkv
Format                                   : Matroska
Format version                           : Version 4 / Version 2
File size                                : 2.16 GiB
Duration                                 : 59mn 14s
Overall bit rate                         : 5 214 Kbps
Encoded date                             : UTC 2016-12-27 23:19:18
Writing application                      : mkvmerge v7.6.0 ('Garden of Dreams') 64bit built on Feb  8 2015 15:12:28
Writing library                          : libebml v1.3.1 + libmatroska v1.4.2
DURATION                                 : 00:58:02.476000000
NUMBER_OF_FRAMES                         : 763
NUMBER_OF_BYTES                          : 1679329
_STATISTICS_WRITING_APP                  : mkvmerge v7.6.0 ('Garden of Dreams') 64bit built on Feb  8 2015 15:12:28
_STATISTICS_WRITING_DATE_UTC             : 2016-12-27 23:19:18
_STATISTICS_TAGS                         : BPS DURATION NUMBER_OF_FRAMES NUMBER_OF_BYTES

Video
ID                                       : 1
Format                                   : AVC
Format/Info                              : Advanced Video Codec
Format profile                           : High@L4.1
Format settings, CABAC                   : Yes
Format settings, ReFrames                : 5 frames
Codec ID                                 : V_MPEG4/ISO/AVC
Duration                                 : 59mn 14s
Bit rate                                 : 4 635 Kbps
Width                                    : 1 280 pixels
Height                                   : 720 pixels
Display aspect ratio                     : 16:9
Frame rate                               : 25.000 fps
Color space                              : YUV
Chroma subsampling                       : 4:2:0
Bit depth                                : 8 bits
Scan type                                : Progressive
Bits/(Pixel*Frame)                       : 0.201
Stream size                              : 1.88 GiB (87%)
Writing library                          : x264 core 148 r2705 3f5ed56
Encoding settings                        : cabac=1 / ref=5 / deblock=1:-3:-3 / analyse=0x3:0x113 / me=umh / subme=8 / psy=1 / psy_rd=1.00:0.00 / mixed_ref=1 / me_range=16 / chroma_me=1 / trellis=1 / 8x8dct=1 / cqm=0 / deadzone=21,11 / fast_pskip=1 / chroma_qp_offset=-2 / threads=22 / lookahead_threads=3 / sliced_threads=0 / nr=0 / decimate=1 / interlaced=0 / bluray_compat=0 / constrained_intra=0 / bframes=3 / b_pyramid=2 / b_adapt=2 / b_bias=0 / direct=3 / weightb=1 / open_gop=0 / weightp=2 / keyint=250 / keyint_min=25 / scenecut=40 / intra_refresh=0 / rc_lookahead=50 / rc=2pass / mbtree=1 / bitrate=4635 / ratetol=1.0 / qcomp=0.60 / qpmin=0 / qpmax=69 / qpstep=4 / cplxblur=20.0 / qblur=0.5 / ip_ratio=1.40 / aq=3:0.80
Default                                  : Yes
Forced                                   : No
DURATION                                 : 00:59:14.360000000
NUMBER_OF_FRAMES                         : 88859
NUMBER_OF_BYTES                          : 2058500707
_STATISTICS_WRITING_APP                  : mkvmerge v7.6.0 ('Garden of Dreams') 64bit built on Feb  8 2015 15:12:28
_STATISTICS_WRITING_DATE_UTC             : 2016-12-27 23:19:18
_STATISTICS_TAGS                         : BPS DURATION NUMBER_OF_FRAMES NUMBER_OF_BYTES

Audio #1
ID                                       : 2
Format                                   : AC-3
Format/Info                              : Audio Coding 3
Mode extension                           : CM (complete main)
Codec ID                                 : A_AC3
Duration                                 : 59mn 14s
Bit rate mode                            : Constant
Bit rate                                 : 192 Kbps
Channel(s)                               : 2 channels
Channel positions                        : Front: L R
Sampling rate                            : 48.0 KHz
Bit depth                                : 16 bits
Compression mode                         : Lossy
Stream size                              : 81.4 MiB (4%)
Title                                    : ITA
Language                                 : Italian
Default                                  : Yes
Forced                                   : Yes

Audio #2
ID                                       : 3
Format                                   : AC-3
Format/Info                              : Audio Coding 3
Mode extension                           : CM (complete main)
Codec ID                                 : A_AC3
Duration                                 : 59mn 14s
Bit rate mode                            : Constant
Bit rate                                 : 384 Kbps
Channel(s)                               : 2 channels
Channel positions                        : Front: L R
Sampling rate                            : 48.0 KHz
Bit depth                                : 16 bits
Compression mode                         : Lossy
Stream size                              : 163 MiB (7%)
Title                                    : ENG
Language                                 : English
Default                                  : No
Forced                                   : No

Text #1
ID                                       : 4
Format                                   : UTF-8
Codec ID                                 : S_TEXT/UTF8
Codec ID/Info                            : UTF-8 Plain Text
Title                                    : ITA - Forced
Language                                 : Italian
Default                                  : Yes
Forced                                   : Yes

Text #2
ID                                       : 5
Format                                   : UTF-8
Codec ID                                 : S_TEXT/UTF8
Codec ID/Info                            : UTF-8 Plain Text
Language                                 : Italian
Default                                  : No
Forced                                   : No

Text #3
ID                                       : 6
Format                                   : VobSub
Muxing mode                              : zlib
Codec ID                                 : S_VOBSUB
Codec ID/Info                            : The same subtitle format used on DVDs
Language                                 : English
Default                                  : No
Forced                                   : No

Menu
00:00:00.000                             : en:00:00:00.000
00:05:13.000                             : en:00:05:13.000
00:16:29.680                             : en:00:16:29.680
00:29:24.960                             : en:00:29:24.960
00:45:49.400                             : en:00:45:49.400
00:58:33.480                             : en:00:58:33.480


[/spoiler]

[center].: Ringraziamenti :.




RESTATE IN SEED ALTRIMENTI

 
[/center]

Info: Per scaricare devi usare un client come uTorrent o Transmission
AnnounceURL
http://tracker.tntvillage.scambioetico.org:2710/announce
Hash 034d5fe71f4d77ad58273ff9352ae74189d03200
Peers seeds: 0 , leech: 0
Size 2.16 GB
Completato 0x
Aggiunto 31.12.16 - 17:12:23
Uploader   ppb1
Votazione (Voti: 0)


Condividi questo bittorrent:


html/blog:


bbcode/forum:




Aggiungi Commento