* Dettagli Torrent   globale  | Commenti (1) 


- Miss Peregrine - La casa dei ragazzi speciali (2016)[BDRip - 1080p - Ita Eng Dts Ita Ac3 - Sub Ita E -


Download via torrent:
Categoria bittorrent BDRip
Descrizione
[center]

Miss Peregrine - La Casa dei Ragazzi Speciali
 BLURAY  DTS  iTA/ENG  AC3 ITA - 1080p


DATA USCITA: 15 dicembre 2016
GENERE: Avventura, Fantasy
ANNO: 2016
REGIA: Tim Burton
ATTORI: Eva Green, Asa Butterfield, Samuel L. Jackson, Ella Purnell, Chris O'Dowd, Allison Janney, Terence Stamp, Judi Dench
SCENEGGIATURA: Jane Goldman
FOTOGRAFIA: Bruno Delbonnel
MONTAGGIO: Chris Lebenzon
MUSICHE: Michael Higham, Matthew Margeson
PRODUZIONE: Chernin Entertainment, Tim Burton Productions.
DISTRIBUZIONE: 20th Century Fox.
PAESE: USA
DURATA: 127 Min[/center]


Trama:When Jacob discovers clues to a mystery that stretches across time, he finds Miss Peregrine's Home for Peculiar Children. But the danger deepens after he gets to know the residents and learns about their special powers.

Quando l'amato nonno lascia a Jake indizi su un mistero che attraversa mondi e tempi alternativi, il ragazzo si ritroverà in un luogo magico noto come La casa per bambini speciali di Miss Peregrine. Ma il mistero si infittisce quando Jake conoscerà gli abitanti della casa, i loro poteri speciali e i loro potenti nemici. Alla fine scoprirà che solo la sua "peculiarità" potrà salvare i suoi nuovi amici.


[center].: Screenshot :.






.: Caratteristiche Tecniche :.

[spoiler]
/Miss.Peregrine.La.Casa.Dei.Ragazzi.Speciali.2016.iTA-ENG.Bluray.1080p.x264-CYBER.mkv
Format                                   : Matroska
Format version                           : Version 2
File size                                : 11.1 GiB
Duration                                 : 2h 6mn
Overall bit rate                         : 12.5 Mbps
Encoded date                             : UTC 2016-12-28 23:40:12
Writing application                      : mkvmerge v9.5.0 ('Quiet Fire') 32bit
Writing library                          : libebml v1.3.4 + libmatroska v1.4.5
Attachment                               : Yes

Video
ID                                       : 1
Format                                   : AVC
Format/Info                              : Advanced Video Codec
Format profile                           : High@L4.1
Format settings, CABAC                   : Yes
Format settings, ReFrames                : 4 frames
Codec ID                                 : V_MPEG4/ISO/AVC
Duration                                 : 2h 6mn
Bit rate                                 : 9 328 Kbps
Width                                    : 1 920 pixels
Height                                   : 1 036 pixels
Display aspect ratio                     : 1.853
Frame rate                               : 23.976 fps
Color space                              : YUV
Chroma subsampling                       : 4:2:0
Bit depth                                : 8 bits
Scan type                                : Progressive
Bits/(Pixel*Frame)                       : 0.196
Stream size                              : 8.27 GiB (75%)
Writing library                          : x264 core 148 r2721 72d53ab
Language                                 : English
Default                                  : Yes
Forced                                   : No

Audio #1
ID                                       : 2
Format                                   : DTS
Format/Info                              : Digital Theater Systems
Codec ID                                 : A_DTS
Duration                                 : 2h 6mn
Bit rate mode                            : Constant
Bit rate                                 : 754 Kbps
Channel(s)                               : 6 channels
Channel positions                        : Front: L C R, Side: L R, LFE
Sampling rate                            : 48.0 KHz
Bit depth                                : 24 bits
Compression mode                         : Lossy
Stream size                              : 685 MiB (6%)
Language                                 : Italian
Default                                  : Yes
Forced                                   : No

Audio #2
ID                                       : 3
Format                                   : AC-3
Format/Info                              : Audio Coding 3
Mode extension                           : CM (complete main)
Codec ID                                 : A_AC3
Duration                                 : 2h 6mn
Bit rate mode                            : Constant
Bit rate                                 : 640 Kbps
Channel(s)                               : 6 channels
Channel positions                        : Front: L C R, Side: L R, LFE
Sampling rate                            : 48.0 KHz
Bit depth                                : 16 bits
Compression mode                         : Lossy
Stream size                              : 581 MiB (5%)
Language                                 : Italian
Default                                  : No
Forced                                   : No

Audio #3
ID                                       : 4
Format                                   : DTS
Format/Info                              : Digital Theater Systems
Format profile                           : ES
Codec ID                                 : A_DTS
Duration                                 : 2h 6mn
Bit rate mode                            : Constant
Bit rate                                 : 1 510 Kbps
Channel(s)                               : 6 channels
Channel positions                        : Front: L C R, Side: L R, LFE
Sampling rate                            : 48.0 KHz
Bit depth                                : 24 bits
Compression mode                         : Lossy
Stream size                              : 1.34 GiB (12%)
Language                                 : English
Default                                  : No
Forced                                   : No

Text #1
ID                                       : 5
Format                                   : UTF-8
Codec ID                                 : S_TEXT/UTF8
Codec ID/Info                            : UTF-8 Plain Text
Title                                    : FORCED
Language                                 : Italian
Default                                  : Yes
Forced                                   : No

Text #2
ID                                       : 6
Format                                   : UTF-8
Codec ID                                 : S_TEXT/UTF8
Codec ID/Info                            : UTF-8 Plain Text
Title                                    : REGOLARI
Language                                 : Italian
Default                                  : No
Forced                                   : No

Text #3
ID                                       : 7
Format                                   : UTF-8
Codec ID                                 : S_TEXT/UTF8
Codec ID/Info                            : UTF-8 Plain Text
Title                                    : NON UDENTI
Language                                 : English
Default                                  : No
Forced                                   : No

Menu
00:00:00.000                             : en:00:00:00.000
00:03:40.804                             : en:00:03:40.804
00:08:38.017                             : en:00:08:38.017
00:13:06.828                             : en:00:13:06.828
00:15:26.551                             : en:00:15:26.551
00:19:47.478                             : en:00:19:47.478
00:23:23.652                             : en:00:23:23.652
00:27:47.040                             : en:00:27:47.040
00:31:06.448                             : en:00:31:06.448
00:34:36.783                             : en:00:34:36.783
00:39:34.998                             : en:00:39:34.998
00:42:42.810                             : en:00:42:42.810
00:46:05.638                             : en:00:46:05.638
00:48:36.497                             : en:00:48:36.497
00:54:16.462                             : en:00:54:16.462
00:57:21.480                             : en:00:57:21.480
01:02:03.261                             : en:01:02:03.261
01:08:20.847                             : en:01:08:20.847
01:14:29.006                             : en:01:14:29.006
01:18:54.063                             : en:01:18:54.063
01:24:15.300                             : en:01:24:15.300
01:28:42.442                             : en:01:28:42.442
01:33:11.753                             : en:01:33:11.753
01:36:29.033                             : en:01:36:29.033
01:40:43.788                             : en:01:40:43.788
01:46:09.238                             : en:01:46:09.238
01:53:35.308                             : en:01:53:35.308
02:00:34.394                             : en:02:00:34.394


[/spoiler]


[center].: Ringraziamenti :.





RESTATE IN SEED ALTRIMENTI



[/center]


Info: Per scaricare devi usare un client come uTorrent, o Azureus
AnnounceURL
udp://tracker.opentrackr.org:1337/announce
Hash 280da6079e0d662ef677a9fc3c3881b244efb5ee
Peers seeds: 233 , leech: 267
Size 11.06 GB
Completato 1952x
Aggiunto 02.01.17 - 20:01:53
Uploader   ppb1
Votazione (Voti: 0)


Condividi questo bittorrent:


html/blog:


bbcode/forum:




Aggiungi Commento
Ultimi commenti
  
grazie mille, finalmente audio DTS
03/01 16.01
Tutti commenti (1)