* Dettagli Torrent   globale  | Commenti (0) 


- Kick Boxer - La Vendetta Del Guerriero (2016).H264.Italian.English.Ac3.5.1.sub.ita.eng.iCV-MIRCrew -


Download via torrent:
Categoria bittorrent BDRip
Descrizione
Kickboxer: Vengeance - Kick Boxer - La Vendetta Del Guerriero (2016).H264.Italian.English.Ac3.5.1.sub.ita.eng.iCV-MIRCrew

[center]


NO FOUND ONLY ORIGINAL RELEASE



My release is always in double track audio italian and Original audio
for select it use VLC or dvd player home
not use wmp

Kick Boxer - La Vendetta Del Guerriero (2016)







Titolo originale Kickboxer: Vengeance
Lingua originale inglese, thailandese
Paese di produzione Stati Uniti d'America
Anno 2016
Durata 89 min
Genere azione
Regia John Stockwell
Soggetto personaggi creati da Mark DiSalle e Jean-Claude Van Damme
Sceneggiatura Dimitri Logothetis, James McGrath
Produttore Ted Field, Nicholas




   Alain Moussi: Kurt Sloane
   Dave Bautista: Tong Po
   Gina Carano: Marcia
   Cain Velasquez: lottatore
   Fabricio Werdum: lottatore
   Sara Malakul Lane: Liu
   Georges St-Pierre: Kavi
   Jean-Claude Van Damme: Durand
   Darren Shahlavi: Eric Sloane




Eric e Kurt Sloane sono i discendenti di una ben nota famiglia esperta di arti marziali. Da sempre nell'ombra del fratello maggiore Eric, Kurt non ha ma dimostrato di avere l'istinto necessario per trasformarsi in un campione. Nonostante le preoccupazioni di Kurt, Eric accetta un'offerta vantaggiosa e parte per la Thailandia allo scopo di sfidare il campione Tong Po



Eric and Kurt Sloane are the descendants of a well-known Venice, California-based family of martial artists. Kurt has always been in older brother, Eric's shadow, as he lacks the instincts needed to become a champion. Against Kurt's concerns, Eric accepts a paid offer and travels to Thailand to challenge the Muay Thai champion Tong Po and fails with dire consequences










[spoiler]
General
Unique ID                                : 145125429453093324894550762890383606254 (0x6D2E241A621EF0CACDE74557DB8041EE)
Complete name                            : Kick Boxer - La Vendetta Del Guerriero (2016).H264.ita.eng.sub.ita.eng.iCV-MIRCrew.mkv
Format                                   : Matroska
Format version                           : Version 2
File size                                : 1.38 GiB
Duration                                 : 1h 30mn
Overall bit rate                         : 2 171 Kbps
Movie name                               : VISIT www.icv-crew.org
Encoded date                             : UTC 2016-12-21 16:41:56
Writing application                      : Lavf54.63.100
Writing library                          : Lavf54.63.100
COPYRIGHT                                : robbyrs

Video
ID                                       : 1
Format                                   : AVC
Format/Info                              : Advanced Video Codec
Format profile                           : Main@L4.1
Format settings, CABAC                   : Yes
Format settings, ReFrames                : 2 frames
Codec ID                                 : V_MPEG4/ISO/AVC
Duration                                 : 1h 30mn
Bit rate                                 : 1 270 Kbps
Width                                    : 720 pixels
Height                                   : 300 pixels
Display aspect ratio                     : 2.40:1
Frame rate mode                          : Variable
Frame rate                               : 23.976 fps
Color space                              : YUV
Chroma subsampling                       : 4:2:0
Bit depth                                : 8 bits
Scan type                                : Progressive
Bits/(Pixel*Frame)                       : 0.245
Stream size                              : 799 MiB (57%)
Writing library                          : x264 core 130 r2273
Encoding settings                        : cabac=1 / ref=2 / deblock=1:0:0 / analyse=0x1:0x131 / me=hex / subme=7 / psy=1 / psy_rd=1.00:0.00 / mixed_ref=0 / me_range=16 / chroma_me=1 / trellis=1 / 8x8dct=0 / cqm=0 / deadzone=21,11 / fast_pskip=1 / chroma_qp_offset=-2 / threads=12 / lookahead_threads=2 / sliced_threads=0 / nr=0 / decimate=1 / interlaced=0 / bluray_compat=0 / constrained_intra=0 / bframes=3 / b_pyramid=0 / b_adapt=1 / b_bias=0 / direct=3 / weightb=1 / open_gop=0 / weightp=2 / keyint=230 / keyint_min=23 / scenecut=40 / intra_refresh=0 / rc_lookahead=40 / rc=2pass / mbtree=1 / bitrate=1270 / ratetol=1.0 / qcomp=0.60 / qpmin=10 / qpmax=69 / qpstep=4 / cplxblur=20.0 / qblur=0.5 / vbv_maxrate=24000 / vbv_bufsize=24000 / nal_hrd=none / ip_ratio=1.40 / aq=1:1.00
Language                                 : English
Default                                  : Yes
Forced                                   : No
DURATION                                 : 01:30:40.519000000
NUMBER_OF_FRAMES                         : 130442
NUMBER_OF_BYTES                          : 6527232504
_STATISTICS_WRITING_APP                  : mkvmerge v8.7.0 ('All of the above') 64bit
_STATISTICS_WRITING_DATE_UTC             : 2016-12-13 15:58:43
_STATISTICS_TAGS                         : BPS DURATION NUMBER_OF_FRAMES NUMBER_OF_BYTES

Audio #1
ID                                       : 2
Format                                   : AC-3
Format/Info                              : Audio Coding 3
Mode extension                           : CM (complete main)
Codec ID                                 : A_AC3
Duration                                 : 1h 30mn
Bit rate mode                            : Constant
Bit rate                                 : 448 Kbps
Channel(s)                               : 6 channels
Channel positions                        : Front: L C R, Side: L R, LFE
Sampling rate                            : 48.0 KHz
Bit depth                                : 16 bits
Compression mode                         : Lossy
Delay relative to video                  : 1mn 5s
Stream size                              : 291 MiB (21%)
Language                                 : Italian
Default                                  : Yes
Forced                                   : No
DURATION                                 : 01:30:40.576000000
NUMBER_OF_FRAMES                         : 170018
NUMBER_OF_BYTES                          : 304672256
_STATISTICS_WRITING_APP                  : mkvmerge v8.7.0 ('All of the above') 64bit
_STATISTICS_WRITING_DATE_UTC             : 2016-12-13 15:58:43
_STATISTICS_TAGS                         : BPS DURATION NUMBER_OF_FRAMES NUMBER_OF_BYTES

Audio #2
ID                                       : 3
Format                                   : AC-3
Format/Info                              : Audio Coding 3
Mode extension                           : CM (complete main)
Codec ID                                 : A_AC3
Duration                                 : 1h 30mn
Bit rate mode                            : Constant
Bit rate                                 : 448 Kbps
Channel(s)                               : 6 channels
Channel positions                        : Front: L C R, Side: L R, LFE
Sampling rate                            : 48.0 KHz
Bit depth                                : 16 bits
Compression mode                         : Lossy
Delay relative to video                  : 1mn 5s
Stream size                              : 291 MiB (21%)
Language                                 : English
Default                                  : No
Forced                                   : No
DURATION                                 : 01:30:40.576000000
NUMBER_OF_FRAMES                         : 170018
NUMBER_OF_BYTES                          : 435246080
_STATISTICS_WRITING_APP                  : mkvmerge v8.7.0 ('All of the above') 64bit
_STATISTICS_WRITING_DATE_UTC             : 2016-12-13 15:58:43
_STATISTICS_TAGS                         : BPS DURATION NUMBER_OF_FRAMES NUMBER_OF_BYTES

Text #1
ID                                       : 4
Format                                   : UTF-8
Codec ID                                 : S_TEXT/UTF8
Codec ID/Info                            : UTF-8 Plain Text
Title                                    : FORCED iTA
Language                                 : Italian
Default                                  : Yes
Forced                                   : No
DURATION                                 : 01:08:34.445000000
NUMBER_OF_FRAMES                         : 48
NUMBER_OF_BYTES                          : 1417
_STATISTICS_WRITING_APP                  : mkvmerge v8.7.0 ('All of the above') 64bit
_STATISTICS_WRITING_DATE_UTC             : 2016-12-13 15:58:43
_STATISTICS_TAGS                         : BPS DURATION NUMBER_OF_FRAMES NUMBER_OF_BYTES

Text #2
ID                                       : 5
Format                                   : UTF-8
Codec ID                                 : S_TEXT/UTF8
Codec ID/Info                            : UTF-8 Plain Text
Title                                    : REGULAR iTA
Language                                 : Italian
Default                                  : No
Forced                                   : No
DURATION                                 : 01:27:52.101000000
NUMBER_OF_FRAMES                         : 453
NUMBER_OF_BYTES                          : 13497
_STATISTICS_WRITING_APP                  : mkvmerge v8.7.0 ('All of the above') 64bit
_STATISTICS_WRITING_DATE_UTC             : 2016-12-13 15:58:43
_STATISTICS_TAGS                         : BPS DURATION NUMBER_OF_FRAMES NUMBER_OF_BYTES

Text #3
ID                                       : 6
Format                                   : UTF-8
Codec ID                                 : S_TEXT/UTF8
Codec ID/Info                            : UTF-8 Plain Text
Title                                    : FORCED ENG
Language                                 : English
Default                                  : No
Forced                                   : No
DURATION                                 : 01:00:40.178000000
NUMBER_OF_FRAMES                         : 43
NUMBER_OF_BYTES                          : 1293
_STATISTICS_WRITING_APP                  : mkvmerge v8.7.0 ('All of the above') 64bit
_STATISTICS_WRITING_DATE_UTC             : 2016-12-13 15:58:43
_STATISTICS_TAGS                         : BPS DURATION NUMBER_OF_FRAMES NUMBER_OF_BYTES

Text #4
ID                                       : 7
Format                                   : UTF-8
Codec ID                                 : S_TEXT/UTF8
Codec ID/Info                            : UTF-8 Plain Text
Title                                    : REGULAR ENG
Language                                 : English
Default                                  : No
Forced                                   : No
DURATION                                 : 01:21:34.367000000
NUMBER_OF_FRAMES                         : 456
NUMBER_OF_BYTES                          : 13429
_STATISTICS_WRITING_APP                  : mkvmerge v8.7.0 ('All of the above') 64bit
_STATISTICS_WRITING_DATE_UTC             : 2016-12-13 15:58:43
_STATISTICS_TAGS                         : BPS DURATION NUMBER_OF_FRAMES NUMBER_OF_BYTES

Menu
00:00:00.000                             : :00:00:00.000
00:07:08.720                             : :00:07:08.720
00:12:03.056                             : :00:12:03.056
00:19:53.150                             : :00:19:53.150
00:27:54.298                             : :00:27:54.298
00:35:41.639                             : :00:35:41.639
00:40:07.864                             : :00:40:07.864
00:50:43.707                             : :00:50:43.707
00:57:52.135                             : :00:57:52.135
01:05:21.876                             : :01:05:21.876
01:13:39.123                             : :01:13:39.123
01:24:17.094                             : :01:24:17.094



[/spoiler]

[/center]

Info: Per scaricare devi usare un client come uTorrent o Transmission
AnnounceURL
udp://tracker.coppersurfer.tk:6969/announce
Hash 50893420d4627921faed3c9cf87ceebd8eff9e6c
Peers seeds: 183 , leech: 18
Size 1.38 GB
Completato 2718x
Aggiunto 04.01.17 - 11:01:52
Uploader   robbyrs
Votazione (Voti: 1)


Condividi questo bittorrent:


html/blog:


bbcode/forum:




Aggiungi Commento