* Dettagli Torrent   globale  | Commenti (0) 


- I Guardiani Della Notte - Night Watch (2004).H264.Italian.English.Ac3.5.1.sub.eng.iCV-MIRCrew -


Download via torrent:
Categoria bittorrent BDRip
Descrizione
I Guardiani Della Notte - Night Watch (2004).H264.Italian.English.Ac3.5.1.sub.eng.iCV-MIRCrew


[center]by www.icv-crew.org

[img]https://s23.postimg.org/b9yhws27f/0sc_Del1.png[/img]
NO FOUND ONLY ORIGINAL RELEASE



My release is always in double track audio italian and Original audio
for select it use VLC or dvd player home
not use wmp

I Guardiani Della Notte - Night Watch (2004)

[img]https://extraimage.net/images/2017/01/04/5fbd994dbb930b01694bf77a8dc63a48.png[/img]





I guardiani della notte
Titolo originale ?????? ?????, Nochnoy dozor
Paese di produzione Russia
Anno 2004
Durata 115 min
Genere fantastico, azione, orrore
Regia Timur Bekmambetov
Soggetto dal romanzo di Sergej Luk'janenko
Sceneggiatura Timur Bekmambetov, Laeta Kalogridis (per l'adattamento inglese) Sergej Luk'janenko, Timur Bekmambetov (sceneggiatura originale)
Produttore Konstantin Ernst, Anatoli Maksimov
Musiche Yuri Poteyenko



Konstantin Khabensky: Anton Gorodetsky
Mariya Poroshina: Svetlana
Vladimir Menshov: Boris Ignatyevich/Geser
Galina Tyunina: Olga
Viktor Verzhbitsky: Zavulon
Dmitry Martynov: Yegor
Aleksei Chadov: Kostya
Aleksei Maklakov: Simeon
Aleksandr Samojlenko: Ilya (Orso)
Rimma Markova: Darya Schultz
Valeri Zolotukhin: Padre di Kostya
Zhanna Friske: Alice Donnikova
Yuri Kutsenko: Gosha Kutsenko/Ignat
Ilya Lagutenko: Andrei
Anna Slyusaryova: Lena (Tigrotto)
Mariya Mironova: Irina (madre di



Dopo secoli di combattimenti, le forze della luce e quelle delle tenebre hanno stretto un accordo: le forze della luce faranno la guardia alla notte, quelle delle tenebre al giorno.



A fantasy-thriller set in present-day Moscow where the respective forces that control daytime and nighttime do battle.










[spoiler]
General
Unique ID                                : 171922106782942252310254488616160228077 (0x8156FE4C8C7934D69E59DD85C43472ED)
Complete name                            : I Guardiani Della Notte - Night Watch (2004).H264.Ita.Eng.sub.eng.iCV-MIRCrew.mkv
Format                                   : Matroska
Format version                           : Version 2
File size                                : 1.67 GiB
Duration                                 : 1h 54mn
Overall bit rate                         : 2 092 Kbps
Encoded date                             : UTC 2016-12-30T18:21:52Z
Writing application                      : HandBrake 0.10.5 2016021100
Writing library                          : Lavf55.12.0

Video
ID                                       : 1
Format                                   : AVC
Format/Info                              : Advanced Video Codec
Format profile                           : Main@L4.0
Format settings, CABAC                   : Yes
Format settings, ReFrames                : 4 frames
Codec ID                                 : V_MPEG4/ISO/AVC
Duration                                 : 1h 54mn
Bit rate                                 : 1 275 Kbps
Width                                    : 720 pixels
Height                                   : 390 pixels
Display aspect ratio                     : 16:9
Frame rate mode                          : Variable
Frame rate                               : 23.976 fps
Color space                              : YUV
Chroma subsampling                       : 4:2:0
Bit depth                                : 8 bits
Scan type                                : Progressive
Bits/(Pixel*Frame)                       : 0.189
Stream size                              : 997 MiB (58%)
Writing library                          : x264 core 142 r2479 dd79a61
Encoding settings                        : cabac=1 / ref=1 / deblock=1:0:0 / analyse=0x1:0x111 / me=hex / subme=2 / psy=1 / psy_rd=1.00:0.00 / mixed_ref=0 / me_range=16 / chroma_me=1 / trellis=0 / 8x8dct=0 / cqm=0 / deadzone=21,11 / fast_pskip=1 / chroma_qp_offset=0 / threads=12 / lookahead_threads=3 / sliced_threads=0 / nr=0 / decimate=1 / interlaced=0 / bluray_compat=0 / constrained_intra=0 / bframes=3 / b_pyramid=2 / b_adapt=1 / b_bias=0 / direct=1 / weightb=1 / open_gop=0 / weightp=1 / keyint=240 / keyint_min=24 / scenecut=40 / intra_refresh=0 / rc_lookahead=10 / rc=abr / mbtree=1 / bitrate=1275 / ratetol=1.0 / qcomp=0.60 / qpmin=0 / qpmax=69 / qpstep=4 / vbv_maxrate=20000 / vbv_bufsize=25000 / nal_hrd=none / filler=0 / ip_ratio=1.40 / aq=1:1.00
Default                                  : Yes
Forced                                   : No
Color primaries                          : BT.709-5, BT.1361, IEC 61966-2-4, SMPTE RP177
Transfer characteristics                 : BT.709-5, BT.1361
Matrix coefficients                      : BT.709-5, BT.1361, IEC 61966-2-4 709, SMPTE RP177

Audio #1
ID                                       : 2
Format                                   : AC-3
Format/Info                              : Audio Coding 3
Mode extension                           : CM (complete main)
Codec ID                                 : A_AC3
Duration                                 : 1h 54mn
Bit rate mode                            : Constant
Bit rate                                 : 448 Kbps
Channel(s)                               : 2 channels
Channel positions                        : Front: L R
Sampling rate                            : 48.0 KHz
Bit depth                                : 16 bits
Compression mode                         : Lossy
Delay relative to video                  : 1mn 5s
Stream size                              : 366 MiB (21%)
Title                                    : Stereo
Language                                 : Italian
Default                                  : Yes
Forced                                   : No

Audio #2
ID                                       : 3
Format                                   : AC-3
Format/Info                              : Audio Coding 3
Mode extension                           : CM (complete main)
Codec ID                                 : A_AC3
Duration                                 : 1h 54mn
Bit rate mode                            : Constant
Bit rate                                 : 384 Kbps
Channel(s)                               : 2 channels
Channel positions                        : Front: L R
Sampling rate                            : 48.0 KHz
Bit depth                                : 16 bits
Compression mode                         : Lossy
Delay relative to video                  : 1mn 5s
Stream size                              : 314 MiB (18%)
Title                                    : Stereo
Language                                 : English
Default                                  : No
Forced                                   : No

Text
ID                                       : 4
Format                                   : VobSub
Codec ID                                 : S_VOBSUB
Codec ID/Info                            : The same subtitle format used on DVDs
Language                                 : English
Default                                  : No
Forced                                   : No

[/spoiler]

[/center]

Info: Per scaricare devi usare un client come uTorrent, o Azureus
AnnounceURL
udp://tracker.coppersurfer.tk:6969/announce
Hash 27bb5a962b52153607f231f253d25a472cef0898
Peers seeds: 96 , leech: 35
Size 1.67 GB
Completato 1087x
Aggiunto 04.01.17 - 13:01:42
Uploader   robbyrs
Votazione (Voti: 0)


Condividi questo bittorrent:


html/blog:


bbcode/forum:




Aggiungi Commento