* Dettagli Torrent   globale  | Commenti (2) 


- Now You See Me 2 - I maghi del crimine (2016).H264.Italian.English.Ac3.5.1.sub.ita.iCV-MIRCrew -


Download via torrent:
Categoria bittorrent BDRip
Descrizione
Now You See Me 2 - I maghi del crimine (2016).H264.Italian.English.Ac3.5.1.sub.ita.iCV-MIRCrew

[center]Visitate www.icv-crew.org


NO FOUND ONLY ORIGINAL RELEASE



My release is always in double track audio italian and Original audio
for select it use VLC or dvd player home
not use wmp

Now You See Me 2 - I maghi del crimine (2016)







   DATA USCITA: 08 giugno 2016
   GENERE: Azione, Commedia, Thriller
   ANNO: 2016
   REGIA: Jon M. Chu
   SCENEGGIATURA: Peter Chiarelli, Ed Solomon
   FOTOGRAFIA: Peter Deming
   MUSICHE: Brian Tyler
   PRODUZIONE: Lionsgate, Summit Entertainment
   DISTRIBUZIONE: Medusa Film
   PAESE: USA
   DURATA: 115 Min



Daniel Radcliffe, Mark Ruffalo, Woody Harrelson, Morgan Freeman, Jesse Eisenberg, Michael Caine, Lizzy Caplan, Dave Franco, Sanaa Lathan, Jay Chou, Justine Wachsberger, David Warshofsky




I Quattro Cavalieri affrontano una seconda avventura portando in tutto il mondo l'illusione a nuove vette di stupore. Un anno dopo aver ingannato l'FBI e aver conquistato il favore del pubblico con i loro spettacoli di magia alla Robin Hood, gli illusionisti ritornano con una nuova performance, nella speranza di smascherare le pratiche immorali di un magnate della tecnologia



The Four Horsemen resurface and are forcibly recruited by a tech genius to pull off their most impossible heist yet.











[spoiler]
General
Unique ID                                : 41048950598158502617317902547477899809 (0x1EE1BD853C5BB8D33C72FB588B60AA21)
Complete name                            : Now You See Me 2 (2016).ita.eng.sub.ita.iCV-MIRCrew.mkv
Format                                   : Matroska
Format version                           : Version 2
File size                                : 1.97 GiB
Duration                                 : 2h 9mn
Overall bit rate                         : 2 176 Kbps
Movie name                               : VISIT www.icv-crew.org
Encoded date                             : UTC 2017-01-05 18:46:17
Writing application                      : Lavf54.63.100
Writing library                          : Lavf54.63.100
COPYRIGHT                                : robbyrs

Video
ID                                       : 1
Format                                   : AVC
Format/Info                              : Advanced Video Codec
Format profile                           : Main@L4.1
Format settings, CABAC                   : Yes
Format settings, ReFrames                : 2 frames
Codec ID                                 : V_MPEG4/ISO/AVC
Duration                                 : 2h 9mn
Bit rate                                 : 1 275 Kbps
Width                                    : 720 pixels
Height                                   : 300 pixels
Display aspect ratio                     : 2.40:1
Frame rate mode                          : Variable
Frame rate                               : 24.000 fps
Color space                              : YUV
Chroma subsampling                       : 4:2:0
Bit depth                                : 8 bits
Scan type                                : Progressive
Bits/(Pixel*Frame)                       : 0.246
Stream size                              : 1.12 GiB (57%)
Writing library                          : x264 core 130 r2273
Encoding settings                        : cabac=1 / ref=2 / deblock=1:0:0 / analyse=0x1:0x131 / me=hex / subme=7 / psy=1 / psy_rd=1.00:0.00 / mixed_ref=0 / me_range=16 / chroma_me=1 / trellis=1 / 8x8dct=0 / cqm=0 / deadzone=21,11 / fast_pskip=1 / chroma_qp_offset=-2 / threads=12 / lookahead_threads=2 / sliced_threads=0 / nr=0 / decimate=1 / interlaced=0 / bluray_compat=0 / constrained_intra=0 / bframes=3 / b_pyramid=0 / b_adapt=1 / b_bias=0 / direct=3 / weightb=1 / open_gop=0 / weightp=2 / keyint=240 / keyint_min=24 / scenecut=40 / intra_refresh=0 / rc_lookahead=40 / rc=2pass / mbtree=1 / bitrate=1275 / ratetol=1.0 / qcomp=0.60 / qpmin=10 / qpmax=69 / qpstep=4 / cplxblur=20.0 / qblur=0.5 / vbv_maxrate=24000 / vbv_bufsize=24000 / nal_hrd=none / ip_ratio=1.40 / aq=1:1.00
Language                                 : English
Default                                  : Yes
Forced                                   : No
DURATION                                 : 02:09:41.875000000
NUMBER_OF_FRAMES                         : 186765
NUMBER_OF_BYTES                          : 9712151997
_STATISTICS_WRITING_APP                  : mkvmerge v8.7.0 ('All of the above') 64bit
_STATISTICS_WRITING_DATE_UTC             : 2016-11-01 20:14:41
_STATISTICS_TAGS                         : BPS DURATION NUMBER_OF_FRAMES NUMBER_OF_BYTES

Audio #1
ID                                       : 2
Format                                   : AC-3
Format/Info                              : Audio Coding 3
Mode extension                           : CM (complete main)
Codec ID                                 : A_AC3
Duration                                 : 2h 9mn
Bit rate mode                            : Constant
Bit rate                                 : 448 Kbps
Channel(s)                               : 6 channels
Channel positions                        : Front: L C R, Side: L R, LFE
Sampling rate                            : 48.0 KHz
Bit depth                                : 16 bits
Compression mode                         : Lossy
Delay relative to video                  : 1mn 5s
Stream size                              : 416 MiB (21%)
Title                                    : AC3 iTA
Language                                 : Italian
Default                                  : Yes
Forced                                   : No
DURATION                                 : 02:09:41.920000000
NUMBER_OF_FRAMES                         : 243185
NUMBER_OF_BYTES                          : 622553600
_STATISTICS_WRITING_APP                  : mkvmerge v8.7.0 ('All of the above') 64bit
_STATISTICS_WRITING_DATE_UTC             : 2016-11-01 20:14:41
_STATISTICS_TAGS                         : BPS DURATION NUMBER_OF_FRAMES NUMBER_OF_BYTES

Audio #2
ID                                       : 3
Format                                   : AC-3
Format/Info                              : Audio Coding 3
Mode extension                           : CM (complete main)
Codec ID                                 : A_AC3
Duration                                 : 2h 9mn
Bit rate mode                            : Constant
Bit rate                                 : 448 Kbps
Channel(s)                               : 6 channels
Channel positions                        : Front: L C R, Side: L R, LFE
Sampling rate                            : 48.0 KHz
Bit depth                                : 16 bits
Compression mode                         : Lossy
Delay relative to video                  : 1mn 5s
Stream size                              : 416 MiB (21%)
Title                                    : AC3 ENG
Language                                 : English
Default                                  : No
Forced                                   : No
DURATION                                 : 02:09:41.888000000
NUMBER_OF_FRAMES                         : 243184
NUMBER_OF_BYTES                          : 622551040
_STATISTICS_WRITING_APP                  : mkvmerge v8.7.0 ('All of the above') 64bit
_STATISTICS_WRITING_DATE_UTC             : 2016-11-01 20:14:41
_STATISTICS_TAGS                         : BPS DURATION NUMBER_OF_FRAMES NUMBER_OF_BYTES

Text #1
ID                                       : 4
Format                                   : UTF-8
Codec ID                                 : S_TEXT/UTF8
Codec ID/Info                            : UTF-8 Plain Text
Title                                    : FORCED iTA
Language                                 : Italian
Default                                  : Yes
Forced                                   : No
DURATION                                 : 01:53:59.083000000
NUMBER_OF_FRAMES                         : 18
NUMBER_OF_BYTES                          : 410
_STATISTICS_WRITING_APP                  : mkvmerge v8.7.0 ('All of the above') 64bit
_STATISTICS_WRITING_DATE_UTC             : 2016-11-01 20:14:41
_STATISTICS_TAGS                         : BPS DURATION NUMBER_OF_FRAMES NUMBER_OF_BYTES

Text #2
ID                                       : 5
Format                                   : UTF-8
Codec ID                                 : S_TEXT/UTF8
Codec ID/Info                            : UTF-8 Plain Text
Title                                    : REGULAR iTA
Language                                 : Italian
Default                                  : No
Forced                                   : No
DURATION                                 : 02:00:00.375000000
NUMBER_OF_FRAMES                         : 1759
NUMBER_OF_BYTES                          : 75285
_STATISTICS_WRITING_APP                  : mkvmerge v8.7.0 ('All of the above') 64bit
_STATISTICS_WRITING_DATE_UTC             : 2016-11-01 20:14:41
_STATISTICS_TAGS                         : BPS DURATION NUMBER_OF_FRAMES NUMBER_OF_BYTES

Menu
00:00:00.000                             : :00:00:00.000
00:05:30.580                             : :00:05:30.580
00:20:47.872                             : :00:20:47.872
00:36:52.794                             : :00:36:52.794
01:00:16.571                             : :01:00:16.571
01:05:52.866                             : :01:05:52.866
01:15:16.625                             : :01:15:16.625
01:27:09.625                             : :01:27:09.625
01:36:48.833                             : :01:36:48.833
01:48:28.000                             : :01:48:28.000
02:01:11.625                             : :02:01:11.625


[/spoiler]

[/center]

Info: Per scaricare devi usare un client come uTorrent o Transmission
AnnounceURL
udp://tracker.coppersurfer.tk:6969/announce
Hash ea1f03728b90cd56bf0d0b9d6ac16708345ad3f2
Peers seeds: 380 , leech: 103
Size 1.97 GB
Completato 5598x
Aggiunto 06.01.17 - 11:01:23
Uploader   robbyrs
Votazione (Voti: 2)


Condividi questo bittorrent:


html/blog:


bbcode/forum:




Aggiungi Commento
Ultimi commenti
  
Ottimo audio e video, Grazie mille!!!
27/01 13.17
  
Buono sia audio che video,grazie MIRCrev
06/01 19.57
Tutti commenti (2)