* Dettagli Torrent   globale  | Commenti (0) 


- Teen.Wolf.6x02.Sovrapposizione.ITA-ENG.1080p.DLMux.DD5.1.h264-NovaRip.mkv -


Download via torrent:
Categoria bittorrent SerieTv
Descrizione
[center]
GIUSEPPEiCV & LITTLELINX
HANNO IL PIACERE DI PRESENTARE[/size]


TEEN WOLF
STAGIONE 6
WEB-DLMUX 1080p

Dual Language ITA - ENG
Sub ITA - ENG
Trovi tutte le nostre serie su
IL CRSARO VERDE
www.icv-crew.org




.: Dati Serie :.


Titolo: Teen Wolf
Titolo originale: Teen Wolf
Anno: 2016
Genere: teen drama, thriller, fantasy, azione, romantico
Episodi: 20
Durata episodio: ~ 41 minuti
Creatore: Jeff Davis
Cast: Tyler Posey, Dylan O'Brien, Holland Roden, Arden Cho, Shelley Henning, Dylan Sprayberry

A somewhat awkward teen is attacked by a werewolf and inherits the curse himself, as well as the enemies that come with it.

Scott e i suoi amici, all'ultimo anno di liceo, sono molto impegnati con lo studio. I ragazzi pensano di essersi liberati di tutti i vecchi nemici che nel corso degli anni hanno turbato le loro esistenze. Ma quando tutto sembra tranquillo, arrivano a Beacon Hills i Ghost Riders, degli strani esseri, che durante le tempeste della caccia selvaggia, rapiscono le anime delle persone, cancellandone così l'esistenza dalla faccia della terra.

Con coraggio e sangue freddo, il gruppo cercherà di salvare la città e Stiles Stilinski, il migliore amico di Scott, che viene catturato proprio dai Ghost Riders. A Beacon Hills arriverà un nuovo professore che si rivelerà un essere molto importante e Theo che cercherà di redimersi. Riusciranno Scott e i suoi amici a mettere in salvo gli abitanti di Beacon Hills?


.: Screenshot :.

 


.: Caratteristiche Tecniche :.[/center]

[spoiler]
Teen.Wolf.6x01.Ricordati.Di.Me.ITA-ENG.1080p.DLMux.DD5.1.h264-NovaRip.mkv
Format                                   : Matroska
Format version                           : Version 2
File size                                : 1.70 GiB
Duration                                 : 41mn 54s
Overall bit rate                         : 5 814 Kbps
Encoded date                             : UTC 2017-04-10 01:38:22
Writing application                      : mkvmerge v8.5.2 ('Crosses') 64bit
Writing library                          : libebml v1.3.3 + libmatroska v1.4.4
DURATION                                 : 00:41:09.865000000
NUMBER_OF_FRAMES                         : 448
NUMBER_OF_BYTES                          : 14167
_STATISTICS_WRITING_APP                  : mkvmerge v8.5.2 ('Crosses') 64bit
_STATISTICS_WRITING_DATE_UTC             : 2017-04-10 01:38:22
_STATISTICS_TAGS                         : BPS DURATION NUMBER_OF_FRAMES NUMBER_OF_BYTES

Video
ID                                       : 1
Format                                   : AVC
Format/Info                              : Advanced Video Codec
Format profile                           : High@L4.0
Format settings, CABAC                   : Yes
Format settings, ReFrames                : 4 frames
Codec ID                                 : V_MPEG4/ISO/AVC
Duration                                 : 41mn 54s
Bit rate                                 : 4 930 Kbps
Width                                    : 1 916 pixels
Height                                   : 1 076 pixels
Display aspect ratio                     : 16:9
Frame rate                               : 23.976 fps
Color space                              : YUV
Chroma subsampling                       : 4:2:0
Bit depth                                : 8 bits
Scan type                                : Progressive
Bits/(Pixel*Frame)                       : 0.100
Stream size                              : 1.44 GiB (85%)
Language                                 : English
Default                                  : Yes
Forced                                   : Yes
Color primaries                          : BT.709-5, BT.1361, IEC 61966-2-4, SMPTE RP177
Transfer characteristics                 : BT.709-5, BT.1361
Matrix coefficients                      : BT.709-5, BT.1361, IEC 61966-2-4 709, SMPTE RP177

Audio #1
ID                                       : 2
Format                                   : AC-3
Format/Info                              : Audio Coding 3
Mode extension                           : CM (complete main)
Codec ID                                 : A_AC3
Duration                                 : 41mn 54s
Bit rate mode                            : Constant
Bit rate                                 : 384 Kbps
Channel(s)                               : 6 channels
Channel positions                        : Front: L C R, Side: L R, LFE
Sampling rate                            : 48.0 KHz
Bit depth                                : 16 bits
Compression mode                         : Lossy
Stream size                              : 115 MiB (7%)
Title                                    : ITA
Language                                 : Italian
Default                                  : Yes
Forced                                   : Yes

Audio #2
ID                                       : 3
Format                                   : AC-3
Format/Info                              : Audio Coding 3
Mode extension                           : CM (complete main)
Codec ID                                 : A_AC3
Duration                                 : 41mn 54s
Bit rate mode                            : Constant
Bit rate                                 : 384 Kbps
Channel(s)                               : 6 channels
Channel positions                        : Front: L C R, Side: L R, LFE
Sampling rate                            : 48.0 KHz
Bit depth                                : 16 bits
Compression mode                         : Lossy
Stream size                              : 115 MiB (7%)
Title                                    : ENG
Language                                 : English
Default                                  : No
Forced                                   : No

Text #1
ID                                       : 4
Format                                   : UTF-8
Codec ID                                 : S_TEXT/UTF8
Codec ID/Info                            : UTF-8 Plain Text
Title                                    : ITA - Forced
Language                                 : Italian
Default                                  : Yes
Forced                                   : Yes

Text #2
ID                                       : 5
Format                                   : UTF-8
Codec ID                                 : S_TEXT/UTF8
Codec ID/Info                            : UTF-8 Plain Text
Title                                    : ITA
Language                                 : Italian
Default                                  : No
Forced                                   : No

Text #3
ID                                       : 6
Format                                   : UTF-8
Codec ID                                 : S_TEXT/UTF8
Codec ID/Info                            : UTF-8 Plain Text
Title                                    : ENG
Language                                 : English
Default                                  : No
Forced                                   : No


[/spoiler]

[center].: Ringraziamenti :.




RESTATE IN SEED ALTRIMENTI

[/center]

Info: Per scaricare devi usare un client come uTorrent o Transmission
AnnounceURL
http://tracker.tntvillage.scambioetico.org:2710/announce
Hash 639f056e813371ec043ea938a512f8189ec68599
Peers seeds: 0 , leech: 0
Size 1.70 GB
Completato 0x
Aggiunto 20.04.17 - 20:04:03
Uploader   ppb1
Votazione (Voti: 0)


Condividi questo bittorrent:


html/blog:


bbcode/forum:




Aggiungi Commento