* Dettagli Torrent   globale  | Commenti (0) 


- Halloween.2.2009.iTALIAN.MD.TS.XViD-ENiG -


Download via torrent:
                 
Categoria bittorrent Screener
Descrizione



Titolo originale: Halloween II
Nazione: U.S.A.
Anno: 2009
Genere: Horror
Durata: 101\'
Regia: Rob Zombie
Sito ufficiale: www.halloween2-movie.com
Sito italiano: www.halloween2.it

Cast: Sheri Moon Zombie, Chase Wright Vanek, Scout Taylor-Compton, Brad Dourif, Caroline Williams, Malcolm McDowell, Tyler Mane, Dayton Callie
Produzione: Dimension Films, Spectacle Entertainment Group, Trancas International Films
Distribuzione: Mediafilm
Data di uscita: 16 Ottobre 2009 (cinema)




Code
   General
   Complete name                    : Halloween.2.2009.iTALIAN.MD.TS.XViD-ENiG[survivalofmisa].avi
   Format                           : AVI
   Format/Info                      : Audio Video Interleave
   File size                        : 709 MiB
   Duration                         : 1h 36mn
   Overall bit rate                 : 1 031 Kbps
   Writing application              : VirtualDubMod 1.5.4.1 (build 2178/release)
   Writing library                  : VirtualDub build 32593/release

   Video
   ID                               : 0
   Format                           : MPEG-4 Visual
   Format profile                   : AdvancedSimple@L5
   Format settings, BVOP            : Yes
   Format settings, QPel            : No
   Format settings, GMC             : No warppoints
   Format settings, Matrix          : Default (H.263)
   Muxing mode                      : Packed bitstream
   Codec ID                         : XVID
   Codec ID/Hint                    : XviD
   Duration                         : 1h 36mn
   Bit rate                         : 890 Kbps
   Width                            : 640 pixels
   Height                           : 384 pixels
   Display aspect ratio             : 16:9
   Frame rate                       : 29.545 fps
   Original frame rate              : 29.547 fps
   Resolution                       : 24 bits
   Colorimetry                      : 4:2:0
   Scan type                        : Progressive
   Bits/(Pixel*Frame)               : 0.123
   Stream size                      : 612 MiB (86%)
   Writing library                  : XviD 1.1.2 (UTC 2006-11-01)

   Audio
   ID                               : 1
   Format                           : MPEG Audio
   Format version                   : Version 1
   Format profile                   : Layer 3
   Codec ID                         : 55
   Codec ID/Hint                    : MP3
   Duration                         : 1h 36mn
   Bit rate mode                    : Constant
   Bit rate                         : 128 Kbps
   Channel(s)                       : 2 channels
   Sampling rate                    : 44.1 KHz
   Resolution                       : 16 bits
   Stream size                      : 88.1 MiB (12%)
   Alignment                        : Aligned on interleaves
   Interleave, duration             : 26 ms (0.77 video frame)
   Interleave, preload duration     : 527 ms

www.survivalofmisa.altervista.org
Info: Per scaricare devi usare un client come uTorrent, o Azureus
AnnounceURL
http://tracker.publicbt.com:80/announce
Hash 670828c867109e6897b388232b41e16da6b0bf93
Peers seeds: 89 , leech: 1072
Size 709.31 MB
Completato 189x
Aggiunto 18.10.09 - 20:10:39
Uploader   goku666
Votazione (Voti: 0)


Condividi questo bittorrent:


html/blog:


bbcode/forum:


Tramite bookmarks:



Aggiungi Commento