* Dettagli Torrent   globale  | Commenti (0) 


- Up.2009.iTALiAN.LD.BDRip.XvlD-SiLENT -


Download via torrent:
                 
Categoria bittorrent DVDrip
Descrizione



Titolo originale: Up
Nazione: U.S.A.
Anno: 2009
Genere: Animazione
Regia: Pete Docter, Bob Peterson
Cast (voci): Christopher Plummer, John Ratzenberger, Edward Asner, Delroy Lindo, Jordan Nagai, Paul Eiding




Code

General
Complete name                    : Up.2009.iTALiAN.LD.BDRip.XvlD-SiLENT[survivalofmisa].avi
Format                           : AVI
Format/Info                      : Audio Video Interleave
File size                        : 680 MiB
Duration                         : 1h 36mn
Overall bit rate                 : 983 Kbps

Video
ID                               : 0
Format                           : MPEG-4 Visual
Format profile                   : AdvancedSimple@L5
Format settings, BVOP            : Yes
Format settings, QPel            : No
Format settings, GMC             : No warppoints
Format settings, Matrix          : Default (MPEG)
Codec ID                         : XVID
Codec ID/Hint                    : XviD
Duration                         : 1h 36mn
Bit rate                         : 855 Kbps
Width                            : 624 pixels
Height                           : 352 pixels
Display aspect ratio             : 16:9
Frame rate                       : 23.976 fps
Resolution                       : 24 bits
Colorimetry                      : 4:2:0
Scan type                        : Progressive
Bits/(Pixel*Frame)               : 0.162
Stream size                      : 591 MiB (87%)
Writing library                  : XviD 1.2.1 (UTC 2008-12-04)

Audio
ID                               : 1
Format                           : MPEG Audio
Format version                   : Version 1
Format profile                   : Layer 3
Codec ID                         : 55
Codec ID/Hint                    : MP3
Duration                         : 1h 36mn
Bit rate mode                    : Variable
Bit rate                         : 116 Kbps
Nominal bit rate                 : 128 Kbps
Channel(s)                       : 2 channels
Sampling rate                    : 48.0 KHz
Resolution                       : 16 bits
Stream size                      : 79.9 MiB (12%)
Alignment                        : Aligned on interleaves
Interleave, duration             : 24 ms (0.58 video frame)
Interleave, preload duration     : 159 ms
Writing library                  : LAME3.99a
Encoding settings                : -m j -V 4 -q 3 -lowpass 17 --abr 128

www.survivalofmisa.altervista.org
Info: Per scaricare devi usare un client come uTorrent, o Azureus
AnnounceURL
http://tracker.openbittorrent.com/announce
Hash 804c784c02a67bdd552688d7480d3f4409e6c4f6
Peers seeds: 996 , leech: 743
Size 679.63 MB
Completato 10x
Aggiunto 23.10.09 - 21:10:38
Uploader   goku666
Votazione (Voti: 0)


Condividi questo bittorrent:


html/blog:


bbcode/forum:


Tramite bookmarks:



Aggiungi Commento