* Dettagli Torrent   globale  | Commenti (0) 


- [BDRip 720p ITA ENG-DTS AC3-SUB] Home Of The Brave-LiFE[ultimafrontiera] -


Download via torrent:
                 
Categoria bittorrent DVD
Descrizione
Titolo Originale: Home of the Brave
Nazionalita : USA/Marocco
Anno : 2006
Genere : Drammatico, Guerra
Durata : 105
Regia : Irwin Winkler

Will, Vanessa, Tommy e Jamal sono quattro americani di stanza in Iraq che, dopo una battaglia, vengono congedati e rimandati in patria. Sono tutti feriti nellanima e qualcuno anche nel corpo: come Vanessa, che ha perso una mano. Faticheranno a riconvertirsi alla vita lontano dal fronte.

General
Complete name : [BDRip 720p ITA ENG-DTS AC3-SUB] Home Of The Brave-LiFE.mkv
Format : Matroska
File size : 5.12 GiB
Duration : 1h 42mn
Overall bit rate : 7 147 Kbps
Encoded date : UTC 2002-01-08 06:10:27
Writing application : mkvmerge v2.5.1 (\\\\\'He Wasn\\\\\'t There\\\\\') built on Feb 22 2009 18:19:47
Writing library : libebml v0.7.7 + libmatroska v0.8.1

Video
ID : 1
Format : AVC
Format/Info : Advanced Video Codec
Format profile : High@L4.1
Format settings, CABAC : Yes
Format settings, ReFrames : 8 frames
Muxing mode : Container profile=Unknown@4.1
Codec ID : V_MPEG4/ISO/AVC
Duration : 1h 42mn
Bit rate : 4 407 Kbps
Nominal bit rate : 4 342 Kbps
Width : 1 280 pixels
Height : 544 pixels
Display aspect ratio : 2.35:1
Original display aspect ratio : 2.35:1
Frame rate : 25.000 fps
Resolution : 24 bits
Colorimetry : 4:2:0
Scan type : Progressive
Bits/(Pixel*Frame) : 0.253
Stream size : 3.16 GiB (62%)
Writing library : x264 core 61 r945M 82efeea
Encoding settings : cabac=1 / ref=8 / deblock=1:0:0 / analyse=0x3:0x2 / me=umh / subme=7 / psy_rd=1.0:0.0 / brdo=1 / mixed_ref=1 / me_range=16 / chroma_me=1 / trellis=0 / 8x8dct=1 / cqm=0 / deadzone=21,11 / chroma_qp_offset=-2 / threads=6 / nr=0 / decimate=1 / mbaff=0 / bframes=3 / b_pyramid=1 / b_adapt=1 / b_bias=0 / direct=3 / wpredb=1 / bime=1 / keyint=250 / keyint_min=25 / scenecut=40(pre) / rc=2pass / bitrate=4342 / ratetol=1.0 / rceq=\\\\\'blurCplx^(1-qComp)\\\\\' / qcomp=1.00 / qpmin=10 / qpmax=51 / qpstep=4 / cplxblur=20.0 / qblur=0.5 / ip_ratio=1.40 / pb_ratio=1.30 / aq=2:1.0

Audio #1
ID : 2
Format : AC-3
Format/Info : Audio Coding 3
Codec ID : A_AC3
Duration : 1h 42mn
Bit rate mode : Constant
Bit rate : 640 Kbps
Channel(s) : 6 channels
Channel positions : Front: L C R, Surround: L R, LFE
Sampling rate : 48.0 KHz
Video delay : 300ms
Stream size : 469 MiB (9%)
Title : AC3 @ 640 Kbps
Language : Italian

Audio #2
ID : 3
Format : DTS
Format/Info : Digital Theater Systems
Codec ID : A_DTS
Duration : 1h 42mn
Bit rate mode : Constant
Bit rate : 1 510 Kbps
Channel(s) : 6 channels
Channel positions : Front: L C R, Surround: L R, LFE
Sampling rate : 48.0 KHz
Resolution : 24 bits
Video delay : 300ms
Stream size : 1.08 GiB (21%)
Title : DTS
Language : Italian

Audio #3
ID : 4
Format : AC-3
Format/Info : Audio Coding 3
Codec ID : A_AC3
Duration : 1h 42mn
Bit rate mode : Constant
Bit rate : 448 Kbps
Channel(s) : 6 channels
Channel positions : Front: L C R, Surround: L R, LFE
Sampling rate : 48.0 KHz
Stream size : 329 MiB (6%)
Language : English

Text #1
ID : 5
Format : UTF-8
Codec ID : S_TEXT/UTF8
Codec ID/Info : UTF-8 Plain Text
Title : Forced
Language : Italian

Text #2
ID : 6
Format : UTF-8
Codec ID : S_TEXT/UTF8
Codec ID/Info : UTF-8 Plain Text
Language : Italian

Text #3
ID : 7
Format : UTF-8
Codec ID : S_TEXT/UTF8
Codec ID/Info : UTF-8 Plain Text
Language : English

http://ufrontiera.altervista.org
Info: Per scaricare devi usare un client come uTorrent, o Azureus
AnnounceURL
http://genesis.1337x.org:1337/announce
Hash 568addd0968db38282459fb612bcc88e44a43ffd
Peers seeds: 2 , leech: 4
Size 5.12 GB
Completato 3x
Aggiunto 21.01.10 - 00:01:46
Uploader   ultimafrontiera
Votazione (Voti: 0)


Condividi questo bittorrent:


html/blog:


bbcode/forum:


Tramite bookmarks:



Aggiungi Commento