* Dettagli Torrent   globale  | Commenti (0) 


- [BDRip 720p ITA ENG-AC3 SUB] Il Corpo di Jennifer-LiFE[ultimafrontiera] -


Download via torrent:
                 
Categoria bittorrent DVD
Descrizione


Titolo Originale: Jennifer\'s Body
Nazionalita : USA
Anno : 2009
Genere : Commedia
Durata : 102
Regia : Karyn Kusama

Quando un demone si impossessa del corpo di Jennifer (Megan Fox), trasformandola in una divoratrice di giovani uomini, la sua migliore amica Needy (Amanda Seyfried) l\'unica a capire come stanno le cose. Purtroppo nessuno le crede, compreso il suo ingenuo ragazzo...



General
Complete name : [BDRip 720p ITA ENG-AC3 SUB] Il Corpo di Jennifer-LiFE.mkv
Format : Matroska
File size : 4.12 GiB
Duration : 1h 38mn
Overall bit rate : 6 012 Kbps
Encoded date : UTC 2002-01-11 00:28:45
Writing application : mkvmerge v2.5.1 (\'He Wasn\'t There\') built on Feb 22 2009 18:19:47
Writing library : libebml v0.7.7 + libmatroska v0.8.1

Video
ID : 1
Format : AVC
Format/Info : Advanced Video Codec
Format profile : High@L4.1
Format settings, CABAC : Yes
Format settings, ReFrames : 3 frames
Muxing mode : Container profile=Unknown@4.1
Codec ID : V_MPEG4/ISO/AVC
Duration : 1h 38mn
Bit rate : 4 868 Kbps
Nominal bit rate : 4 828 Kbps
Width : 1 280 pixels
Height : 720 pixels
Display aspect ratio : 16:9
Frame rate : 25.000 fps
Original frame rate : 23.976 fps
Resolution : 24 bits
Colorimetry : 4:2:0
Scan type : Progressive
Bits/(Pixel*Frame) : 0.211
Stream size : 3.34 GiB (81%)
Writing library : x264 core 77 r1281M 3836218
Encoding settings : cabac=1 / ref=3 / deblock=1:0:0 / analyse=0x3:0x12 / me=dia / subme=2 / psy=1 / psy_rd=0.0:0.0 / mixed_ref=0 / me_range=16 / chroma_me=1 / trellis=0 / 8x8dct=1 / cqm=0 / deadzone=21,11 / chroma_qp_offset=0 / threads=6 / nr=0 / decimate=1 / mbaff=0 / constrained_intra=0 / bframes=3 / b_pyramid=0 / b_adapt=1 / b_bias=0 / direct=1 / wpredb=1 / keyint=24 / keyint_min=2 / scenecut=40 / rc_lookahead=28 / rc=cbr / mbtree=0 / bitrate=4828 / ratetol=1.0 / qcomp=0.50 / qpmin=10 / qpmax=51 / qpstep=4 / vbv_maxrate=25000 / vbv_bufsize=30000 / ip_ratio=1.10 / pb_ratio=1.10 / aq=1:1.00

Audio #1
ID : 2
Format : AC-3
Format/Info : Audio Coding 3
Codec ID : A_AC3
Duration : 1h 38mn
Bit rate mode : Constant
Bit rate : 384 Kbps
Channel(s) : 6 channels
Channel positions : Front: L C R, Surround: L R, LFE
Sampling rate : 48.0 KHz
Video delay : 960ms
Stream size : 270 MiB (6%)
Language : Italian

Audio #2
ID : 3
Format : AC-3
Format/Info : Audio Coding 3
Codec ID : A_AC3
Duration : 1h 38mn
Bit rate mode : Constant
Bit rate : 640 Kbps
Channel(s) : 6 channels
Channel positions : Front: L C R, Surround: L R, LFE
Sampling rate : 48.0 KHz
Stream size : 449 MiB (11%)
Language : English

Text #1
ID : 4
Format : UTF-8
Codec ID : S_TEXT/UTF8
Codec ID/Info : UTF-8 Plain Text
Title : Forced
Language : Italian

Text #2
ID : 5
Format : UTF-8
Codec ID : S_TEXT/UTF8
Codec ID/Info : UTF-8 Plain Text
Language : Italian

Text #3
ID : 6
Format : UTF-8
Codec ID : S_TEXT/UTF8
Codec ID/Info : UTF-8 Plain Text
Language : English

http://ufrontiera.altervista.org
Info: Per scaricare devi usare un client come uTorrent, o Azureus
AnnounceURL
http://genesis.1337x.org:1337/announce
Hash 2f645cb6c1651366fd29a4a8d74524c59057529c
Peers seeds: 11 , leech: 47
Size 4.12 GB
Completato 57x
Aggiunto 23.01.10 - 22:01:14
Uploader   ultimafrontiera
Votazione (Voti: 0)


Condividi questo bittorrent:


html/blog:


bbcode/forum:


Tramite bookmarks:



Aggiungi Commento