* Dettagli Torrent   globale  | Commenti (0) 


- [BDRip 1080p ITA ENG-AC3-SUB] Whiteout-Incubo Bianco-LiFE[ultimafrontiera] -


Download via torrent:
                 
Categoria bittorrent DVD
Descrizione


Titolo Originale: WhiteOut
Nazionalita : U.S.A., Canada
Anno : 2009
Genere : Azione, Thriller
Durata : 98
Regia : Dominic Sena

Per far luce sul primo assassinio mai commesso in Antartide, gli Sati Uniti mandano sul posto un loro sceriffo federale, Carrie Stetko. La donna, però, ha il tempo contato, infatti, le rimangono solo tre giorni prima che l\'intera regione piombi in un buio lungo sei mesi, lasciandola così, pericolosamente isolata in compagnia dell\'assassino...



General
Complete name                    : /media/disk1/download/root/New folder/[BDRip 1080p ITA ENG-AC3-SUB] Whiteout-Incubo Bianco-LiFE.mkv
Format                           : Matroska
File size                        : 8.39 GiB
Duration                         : 1h 40mn
Overall bit rate                 : 11.9 Mbps
Movie name                       : ~ LiFE ~
Encoded date                     : UTC 2010-02-08 01:01:50
Writing application              : mkvmerge v3.0.0 (\'Hang up your Hang-Ups\') built on Dec 12 2009 19:05:48
Writing library                  : libebml v0.7.7 + libmatroska v0.8.1

Video
ID                               : 1
Format                           : AVC
Format/Info                      : Advanced Video Codec
Format profile                   : High@L4.1
Format settings, CABAC           : Yes
Format settings, ReFrames        : 5 frames
Muxing mode                      : Container profile=Unknown@4.1
Codec ID                         : V_MPEG4/ISO/AVC
Duration                         : 1h 40mn
Bit rate                         : 10.4 Mbps
Nominal bit rate                 : 10.7 Mbps
Width                            : 1 920 pixels
Height                           : 800 pixels
Display aspect ratio             : 2.40:1
Frame rate                       : 23.976 fps
Resolution                       : 24 bits
Colorimetry                      : 4:2:0
Scan type                        : Progressive
Bits/(Pixel*Frame)               : 0.283
Stream size                      : 7.32 GiB (87%)
Title                            : Whiteout-2009-1080p-BluRay-By-momos
Writing library                  : x264 core 80 r1376 3feaec2
Encoding settings                : cabac=1 / ref=5 / deblock=1:0:0 / analyse=0x3:0x133 / me=umh / subme=7 / psy=1 / psy_rd=1.0:0.0 / mixed_ref=1 / me_range=16 / chroma_me=1 / trellis=1 / 8x8dct=1 / cqm=0 / deadzone=21,11 / fast_pskip=1 / chroma_qp_offset=-2 / threads=3 / sliced_threads=0 / nr=0 / decimate=1 / mbaff=0 / constrained_intra=0 / bframes=3 / b_pyramid=0 / b_adapt=1 / b_bias=0 / direct=1 / wpredb=1 / wpredp=2 / keyint=250 / keyint_min=25 / scenecut=40 / rc=2pass / mbtree=0 / bitrate=10653 / ratetol=1.0 / qcomp=0.60 / qpmin=10 / qpmax=51 / qpstep=4 / cplxblur=20.0 / qblur=0.5 / ip_ratio=1.40 / pb_ratio=1.30 / aq=1:1.00

Audio #1
ID                               : 2
Format                           : AC-3
Format/Info                      : Audio Coding 3
Codec ID                         : A_AC3
Duration                         : 1h 40mn
Bit rate mode                    : Constant
Bit rate                         : 640 Kbps
Channel(s)                       : 6 channels
Channel positions                : Front: L C R, Surround: L R, LFE
Sampling rate                    : 48.0 KHz
Video delay                      : 16ms
Stream size                      : 461 MiB (5%)
Language                         : Italian

Audio #2
ID                               : 3
Format                           : AC-3
Format/Info                      : Audio Coding 3
Codec ID                         : A_AC3
Duration                         : 1h 40mn
Bit rate mode                    : Constant
Bit rate                         : 640 Kbps
Channel(s)                       : 6 channels
Channel positions                : Front: L C R, Surround: L R, LFE
Sampling rate                    : 48.0 KHz
Stream size                      : 461 MiB (5%)
Language                         : English

Text #1
ID                               : 4
Format                           : UTF-8
Codec ID                         : S_TEXT/UTF8
Codec ID/Info                    : UTF-8 Plain Text
Title                            : Forced
Language                         : Italian

Text #2
ID                               : 5
Format                           : UTF-8
Codec ID                         : S_TEXT/UTF8
Codec ID/Info                    : UTF-8 Plain Text
Language                         : Italian

Text #3
ID                               : 6
Format                           : UTF-8
Codec ID                         : S_TEXT/UTF8
Codec ID/Info                    : UTF-8 Plain Text
Language                         : English

Menu
00:00:00.000                     : en:00:00:00.000
00:05:15.315                     : en:00:05:15.315
00:10:17.033                     : en:00:10:17.033
00:14:37.835                     : en:00:14:37.835
00:17:50.736                     : en:00:17:50.736
00:22:16.043                     : en:00:22:16.043
00:27:17.761                     : en:00:27:17.761
00:32:12.097                     : en:00:32:12.097
00:37:05.098                     : en:00:37:05.098
00:41:07.131                     : en:00:41:07.131
00:46:34.875                     : en:00:46:34.875
00:51:55.112                     : en:00:51:55.112
00:54:17.337                     : en:00:54:17.337
00:57:32.949                     : en:00:57:32.949
01:02:31.581                     : en:01:02:31.581
01:06:17.098                     : en:01:06:17.098
01:11:15.313                     : en:01:11:15.313
01:16:13.068                     : en:01:16:13.068
01:18:05.890                     : en:01:18:05.890
01:21:52.908                     : en:01:21:52.908
01:28:48.156                     : en:01:28:48.156
01:31:49.504                     : en:01:31:49.504
01:34:07.267                     : en:01:34:07.267

http://ufrontiera.altervista.org
Info: Per scaricare devi usare un client come uTorrent, o Azureus
AnnounceURL
http://genesis.1337x.org:1337/announce
Hash acace2c9c17526dc65efbe903d321c75af9d6d2e
Peers seeds: 5 , leech: 123
Size 8.39 GB
Completato 41x
Aggiunto 08.02.10 - 14:02:04
Uploader   ultimafrontiera
Votazione (Voti: 0)


Condividi questo bittorrent:


html/blog:


bbcode/forum:


Tramite bookmarks:



Aggiungi Commento