* Dettagli Torrent   globale  | Commenti (0) 


- [BDRip 720p ITA ENG-DTS AC3-SUB] Smokin' Aces 2-LiFE[ultimafrontiera] -


Download via torrent:
                 
Categoria bittorrent DVD
Descrizione


Titolo Originale: Smokin\' Aces 2: Assassin\' Ball
Nazionalita : Canada, USA
Anno : 2010
Genere : Azione
Durata : 104
Regia : PJ Pesce

Walter Weed un un impiegato senza pretese del FBI quando l\'Agenzia scopre un piano per assassinarlo. Una squadra di degenerati e assassini psicotici mandati dal misterioso Hal Leuco cercano di vincere un\'enorme taglia che include un\'ingegnosa bellezza che ha un metodo unico per uccidere le sue prede, uno psicopatico che maneggia un attrezzo elettrico e un mortale maestro del travestimento. Alla caccia prende parte anche la famiglia Tremor.



/media/disk1/download/root/[BDRip 720p ITA ENG-DTS AC3-SUB] Smokin\' Aces 2-LiFE/[BDRip 720p ITA ENG-DTS AC3-SUB] Smokin\' Aces 2-LiFE.mkv
Format                           : Matroska
File size                        : 5.16 GiB
Duration                         : 1h 28mn
Overall bit rate                 : 8 386 Kbps
Movie name                       : ~ LiFE ~
Encoded date                     : UTC 2002-01-01 04:12:00
Writing application              : mkvmerge v3.0.0 (\'Hang up your Hang-Ups\') built on Dec 12 2009 15:20:35
Writing library                  : libebml v0.7.9 + libmatroska v0.8.1

Video
ID                               : 1
Format                           : AVC
Format/Info                      : Advanced Video Codec
Format profile                   : High@L4.1
Format settings, CABAC           : Yes
Format settings, ReFrames        : 3 frames
Muxing mode                      : Container profile=Unknown@4.1
Codec ID                         : V_MPEG4/ISO/AVC
Duration                         : 1h 27mn
Bit rate                         : 5 315 Kbps
Nominal bit rate                 : 5 600 Kbps
Width                            : 1 280 pixels
Height                           : 720 pixels
Display aspect ratio             : 16:9
Frame rate                       : 23.976 fps
Resolution                       : 24 bits
Colorimetry                      : 4:2:0
Scan type                        : Progressive
Bits/(Pixel*Frame)               : 0.241
Stream size                      : 3.27 GiB (63%)
Writing library                  : x264 core 77 r1281M 3836218
Encoding settings                : cabac=1 / ref=3 / deblock=1:0:0 / analyse=0x3:0x12 / me=dia / subme=2 / psy=1 / psy_rd=0.0:0.0 / mixed_ref=0 / me_range=16 / chroma_me=1 / trellis=0 / 8x8dct=1 / cqm=0 / deadzone=21,11 / chroma_qp_offset=0 / threads=6 / nr=0 / decimate=1 / mbaff=0 / constrained_intra=0 / bframes=3 / b_pyramid=0 / b_adapt=1 / b_bias=0 / direct=1 / wpredb=1 / keyint=24 / keyint_min=2 / scenecut=40 / rc_lookahead=28 / rc=cbr / mbtree=0 / bitrate=5600 / ratetol=1.0 / qcomp=0.50 / qpmin=10 / qpmax=51 / qpstep=4 / vbv_maxrate=25000 / vbv_bufsize=30000 / ip_ratio=1.10 / pb_ratio=1.10 / aq=1:1.00

Audio #1
ID                               : 2
Format                           : AC-3
Format/Info                      : Audio Coding 3
Codec ID                         : A_AC3
Duration                         : 1h 28mn
Bit rate mode                    : Constant
Bit rate                         : 640 Kbps
Channel(s)                       : 6 channels
Channel positions                : Front: L C R, Surround: L R, LFE
Sampling rate                    : 48.0 KHz
Stream size                      : 403 MiB (8%)
Title                            : AC3 @ 640 Kbps
Language                         : Italian

Audio #2
ID                               : 3
Format                           : DTS
Format/Info                      : Digital Theater Systems
Codec ID                         : A_DTS
Duration                         : 1h 28mn
Bit rate mode                    : Constant
Bit rate                         : 754 Kbps
Channel(s)                       : 6 channels
Channel positions                : Front: L C R, Surround: L R, LFE
Sampling rate                    : 48.0 KHz
Resolution                       : 24 bits
Stream size                      : 475 MiB (9%)
Title                            : DTS
Language                         : Italian

Audio #3
ID                               : 4
Format                           : DTS
Format/Info                      : Digital Theater Systems
Codec ID                         : A_DTS
Duration                         : 1h 28mn
Bit rate mode                    : Constant
Bit rate                         : 1 510 Kbps
Channel(s)                       : 6 channels
Channel positions                : Front: L C R, Surround: L R, LFE
Sampling rate                    : 48.0 KHz
Resolution                       : 24 bits
Stream size                      : 951 MiB (18%)
Title                            : DTS
Language                         : English

Text #1
ID                               : 5
Format                           : UTF-8
Codec ID                         : S_TEXT/UTF8
Codec ID/Info                    : UTF-8 Plain Text
Title                            : Forced
Language                         : Italian

Text #2
ID                               : 6
Format                           : UTF-8
Codec ID                         : S_TEXT/UTF8
Codec ID/Info                    : UTF-8 Plain Text
Language                         : Italian

Text #3
ID                               : 7
Format                           : UTF-8
Codec ID                         : S_TEXT/UTF8
Codec ID/Info                    : UTF-8 Plain Text
Language                         : English

http://ufrontiera.altervista.org
Info: Per scaricare devi usare un client come uTorrent, o Azureus
AnnounceURL
http://genesis.1337x.org:1337/announce
Hash 76129878bfffd626d56c3528772a25748a0e4b28
Peers seeds: 1 , leech: 71
Size 5.16 GB
Completato 17x
Aggiunto 09.02.10 - 22:02:36
Uploader   ultimafrontiera
Votazione (Voti: 0)


Condividi questo bittorrent:


html/blog:


bbcode/forum:


Tramite bookmarks:



Aggiungi Commento