* Dettagli Torrent   globale  | Commenti (0) 


- [BDRip 720p ITA SWE-AC3-SUB] La Ragazza che Giocava con il Fuoco-LiFE [ultimafrontiera] -


Download via torrent:
                 
Categoria bittorrent DVD
Descrizione


Titolo Originale: Flickan som lekte med elden
Nazionalita : Svezia
Anno : 2009
Genere : Thriller
Durata : 127
Regia : Daniel Alfredson

Una scandalosa inchiesta sul mercato del sesso in Svezia sta per essere pubblicata dalla rivista \"Millenium\". A pochi giorni dalluscita del pezzo, i due giornalisti che lo hanno realizzato vengono trovati morti. Gli indizi sul luogo del delitto portano a Lisbeth, che viene ricercata dalla polizia. Mikael Blomqvist non ha dubbi sulla sua innocenza e si mette sulle sue tracce...



General
Complete name                    : G:[BDRip 720p ITA SWE-AC3-SUB] La Rgazza che Giocava con il Fuoco-LiFE\\[BDRip 720p ITA SWE-AC3-SUB] La Rgazza che Giocava con il Fuoco-LiFE.mkv
Format                           : Matroska
File size                        : 4.70 GiB
Duration                         : 2h 4mn
Overall bit rate                 : 5 418 Kbps
Encoded date                     : UTC 2002-01-06 02:09:41
Writing application              : mkvmerge v3.0.0 (\'Hang up your Hang-Ups\') built on Dec 12 2009 15:20:35
Writing library                  : libebml v0.7.9 + libmatroska v0.8.1

Video
ID                               : 1
Format                           : AVC
Format/Info                      : Advanced Video Codec
Format profile                   : High@L4.1
Format settings, CABAC           : Yes
Format settings, ReFrames        : 3 frames
Muxing mode                      : Container profile=Unknown@4.1
Codec ID                         : V_MPEG4/ISO/AVC
Duration                         : 2h 4mn
Bit rate                         : 4 222 Kbps
Nominal bit rate                 : 4 200 Kbps
Width                            : 1 280 pixels
Height                           : 720 pixels
Display aspect ratio             : 16:9
Frame rate                       : 25.000 fps
Original frame rate              : 24.000 fps
Resolution                       : 24 bits
Colorimetry                      : 4:2:0
Scan type                        : Progressive
Bits/(Pixel*Frame)               : 0.183
Stream size                      : 3.67 GiB (78%)
Writing library                  : x264 core 77 r1281M 3836218
Encoding settings                : cabac=1 / ref=3 / deblock=1:0:0 / analyse=0x3:0x12 / me=dia / subme=2 / psy=1 / psy_rd=0.0:0.0 / mixed_ref=0 / me_range=16 / chroma_me=1 / trellis=0 / 8x8dct=1 / cqm=0 / deadzone=21,11 / chroma_qp_offset=0 / threads=6 / nr=0 / decimate=1 / mbaff=0 / constrained_intra=0 / bframes=3 / b_pyramid=0 / b_adapt=1 / b_bias=0 / direct=1 / wpredb=1 / keyint=24 / keyint_min=2 / scenecut=40 / rc_lookahead=28 / rc=cbr / mbtree=0 / bitrate=4200 / ratetol=1.0 / qcomp=0.50 / qpmin=10 / qpmax=51 / qpstep=4 / vbv_maxrate=25000 / vbv_bufsize=30000 / ip_ratio=1.10 / pb_ratio=1.10 / aq=1:1.00

Audio #1
ID                               : 2
Format                           : AC-3
Format/Info                      : Audio Coding 3
Codec ID                         : A_AC3
Duration                         : 2h 4mn
Bit rate mode                    : Constant
Bit rate                         : 448 Kbps
Channel(s)                       : 6 channels
Channel positions                : Front: L C R, Surround: L R, LFE
Sampling rate                    : 48.0 KHz
Video delay                      : 24ms
Stream size                      : 398 MiB (8%)
Language                         : Italian

Audio #2
ID                               : 3
Format                           : AC-3
Format/Info                      : Audio Coding 3
Codec ID                         : A_AC3
Duration                         : 2h 4mn
Bit rate mode                    : Constant
Bit rate                         : 640 Kbps
Channel(s)                       : 6 channels
Channel positions                : Front: L C R, Surround: L R, LFE
Sampling rate                    : 48.0 KHz
Stream size                      : 569 MiB (12%)
Language                         : Swedish

Text #1
ID                               : 4
Format                           : UTF-8
Codec ID                         : S_TEXT/UTF8
Codec ID/Info                    : UTF-8 Plain Text
Language                         : Italian

Text #2
ID                               : 5
Format                           : UTF-8
Codec ID                         : S_TEXT/UTF8
Codec ID/Info                    : UTF-8 Plain Text
Language                         : Italian

Text #3
ID                               : 6
Format                           : UTF-8
Codec ID                         : S_TEXT/UTF8
Codec ID/Info                    : UTF-8 Plain Text
Language                         : English

http://ufrontiera.altervista.org


Info: Per scaricare devi usare un client come uTorrent, o Azureus
AnnounceURL
http://genesis.1337x.org:1337/announce
Hash fda393e09644e4835d092b1d0d8c76d373bc6b1e
Peers seeds: 12 , leech: 39
Size 4.70 GB
Completato 45x
Aggiunto 13.02.10 - 23:02:09
Uploader   ultimafrontiera
Votazione (Voti: 0)


Condividi questo bittorrent:


html/blog:


bbcode/forum:


Tramite bookmarks:



Aggiungi Commento