* Dettagli Torrent   globale  | Commenti (0) 


- Nip Tuck s04e01-02 [Mux - XviD - Ita Mp3] [TNTvillage] -


Download via torrent:
                 
Categoria bittorrent SerieTv
Descrizione
Nip Tuck s04e01-02 [Mux - XviD - Ita Mp3] [Tntvillage.Scambioetico]



by Nova Rip - gc22

.: Dati Serie :.

Titolo originale: Nip/Tuck
Genere: Drammatico
Episodi: 15
Anno: 2007
Durata episodio: ~45  Minuti
Creatore: Ryan Murphy
Produzione: Ryan Murphy Production, The Shephard/Robin Company
Cast: Joely Richardson, Dylan Walsh, Roma Maffia, Julian McMahon, John Hensley

.: Trama :.

Due chirurgo-plastici in voga a Miami South Beach si trovano anche loro, in piena crisi di mezza età, a fare i conti con problemi di carriera, famiglia e amore. Sul lettino dei due dottori Sean McNamara e Christian Troy si sdraia l\'America che vuole darci un taglio! Dietro i desideri estetici dei pazienti, il più delle volte il bisturi fa emergere le loro insoddisfazioni, la fragile natura di chi è incapace di accettarsi, più che fisicamente, dal lato psicologico. Troy e McNamara sono amici dai tempi dell\'università, da quando dopo la laurea in Medicina hanno aperto lo studio più \"in\" di South Beach. Se il primo ha sviluppato una sorta di cinismo nell\'accettare i casi d\'intervento, anche alla luce degli alti guadagni che gli permettono una vita da playboy, il secondo si dimostra più vulnerabile, soprattutto quando torna a casa dalla famiglia. La moglie Julia ha sacrificato la propria vita a causa della carriera del marito. Anni di sacrifici che ora portano sull\'orlo del divorzio, con l\'idea di riprendere gli studi di medicina. Il figlio adolescente della coppia, Matt, si dimostra più in confidenza con Christian che con Sean...Così come Julia stessa, del resto. A completare il caste, si aggiunge la dottoressa Grace Santiago, la psicologa assunta per valutare i casi che bussano alla loro porta.


.: Episodio 01 - Cindy Plumb :.



Sean e Christian eseguono il loro intervento numero 5000. Julia confida a Sean alcune dolorose notizie circa il bambino in arrivo. Dopo una seduta con la sua psicanalista ed un incontro sessuale con una madre ed una figlia insieme, Christian decide di modificare l\'arredamento di casa. Per affrontare con serenità il futuro, Sean accetta di vendere la clinica al facoltoso uomo d\'affari Burt Landau.


.: Episodio 02 - Blu Mondae :.



Sean e Julia prendono un\'importante decisione nei confronti del loro bimbo non ancora nato. La scelta di Matt di avvicinarsi alla chiesa di Scientology è vista con un po\' di incertezza dai suoi familiari. Sean e Christian incontrano dei problemi con il loro nuovo capo. Troy si occupa del caso di un uomo anziano che vuole che suo giovane amante si sottoponga ad un intervento di chirurgia estetica.


.: Caratteristiche Tecniche :.

General
Complete name                    : Nip.Tuck.4x01.Cindy.Plumb.ITA.DVDMux.XviD-NovaRip.avi
Format                           : AVI
Format/Info                      : Audio Video Interleave
File size                        : 349 MiB
Duration                         : 51mn 17s
Overall bit rate                 : 950 Kbps
Writing application              : VirtualDubMod 1.5.10.2 (build 2540/release)
Writing library                  : VirtualDubMod build 2540/release

Video
ID                               : 0
Format                           : MPEG-4 Visual
Format profile                   : Advanced Simple@L5
Format settings, BVOP            : Yes
Format settings, QPel            : No
Format settings, GMC             : No warppoints
Format settings, Matrix          : Default (H.263)
Muxing mode                      : Packed bitstream
Codec ID                         : XVID
Codec ID/Hint                    : XviD
Duration                         : 51mn 17s
Bit rate                         : 812 Kbps
Width                            : 640 pixels
Height                           : 352 pixels
Display aspect ratio             : 16:9
Frame rate                       : 25.000 fps
Resolution                       : 8 bits
Colorimetry                      : 4:2:0
Scan type                        : Progressive
Bits/(Pixel*Frame)               : 0.144
Stream size                      : 298 MiB (86%)
Writing library                  : XviD 1.1.2 (UTC 2006-11-01)

Audio
ID                               : 1
Format                           : MPEG Audio
Format version                   : Version 1
Format profile                   : Layer 3
Format_Settings_Mode             : Joint stereo
Codec ID                         : 55
Codec ID/Hint                    : MP3
Duration                         : 51mn 17s
Bit rate mode                    : Constant
Bit rate                         : 128 Kbps
Channel(s)                       : 2 channels
Sampling rate                    : 44.1 KHz
Stream size                      : 47.0 MiB (13%)
Alignment                        : Split accross interleaves
Interleave, duration             : 40 ms (1.00 video frame)
Interleave, preload duration     : 500 ms


Visit http://www.tntvillage.scambioetico.org/
Info: Per scaricare devi usare un client come uTorrent, o Azureus
AnnounceURL
http://tracker.tntvillage.scambioetico.org:2710/announce
Hash e6991cf7851577f3a58efc301d1982b4d51cde46
Peers seeds: 7 , leech: 8
Size 697.93 MB
Completato 207x
Aggiunto 15.02.10 - 16:02:15
Uploader   darayava
Votazione (Voti: 0)


Condividi questo bittorrent:


html/blog:


bbcode/forum:


Tramite bookmarks:



Aggiungi Commento