* Dettagli Torrent   globale  | Commenti (0) 


- Nip Tuck s04e03-04 [Mux - XviD - Ita Mp3] [TNTvillage] -


Download via torrent:
                 
Categoria bittorrent SerieTv
Descrizione
Nip Tuck s04e03-04 [Mux - XviD - Ita Mp3] [Tntvillage.Scambioetico]



by Nova Rip - gc22

.: Dati Serie :.

Titolo originale: Nip/Tuck
Genere: Drammatico
Episodi: 15
Anno: 2007
Durata episodio: ~45  Minuti
Creatore: Ryan Murphy
Produzione: Ryan Murphy Production, The Shephard/Robin Company
Cast: Joely Richardson, Dylan Walsh, Roma Maffia, Julian McMahon, John Hensley

.: Trama :.

Due chirurgo-plastici in voga a Miami South Beach si trovano anche loro, in piena crisi di mezza età, a fare i conti con problemi di carriera, famiglia e amore. Sul lettino dei due dottori Sean McNamara e Christian Troy si sdraia l\'America che vuole darci un taglio! Dietro i desideri estetici dei pazienti, il più delle volte il bisturi fa emergere le loro insoddisfazioni, la fragile natura di chi è incapace di accettarsi, più che fisicamente, dal lato psicologico. Troy e McNamara sono amici dai tempi dell\'università, da quando dopo la laurea in Medicina hanno aperto lo studio più in di South Beach. Se il primo ha sviluppato una sorta di cinismo nell\'accettare i casi d\'intervento, anche alla luce degli alti guadagni che gli permettono una vita da playboy, il secondo si dimostra più vulnerabile, soprattutto quando torna a casa dalla famiglia. La moglie Julia ha sacrificato la propria vita a causa della carriera del marito. Anni di sacrifici che ora portano sull\'orlo del divorzio, con l\'idea di riprendere gli studi di medicina. Il figlio adolescente della coppia, Matt, si dimostra più in confidenza con Christian che con Sean...Così come Julia stessa, del resto. A completare il caste, si aggiunge la dottoressa Grace Santiago, la psicologa assunta per valutare i casi che bussano alla loro porta.


.: Episodio 03 - Monica Wilder :.



I desideri nascosti di Sean risalgono in superficie durante la ricerca della tata che dovrà occuparsi del piccolo in arrivo. Così l\'uomo chiede aiuto a Christian, il quale però è tutto preso dalla sua vanità e non è disponibile. Liz racconta a Michelle di averla vista baciare una donna e per questo viene licenziata. Julia dà alla luce il piccolo Conor ed assume quella che ritiene la giusta babysitter.


.: Episodio 04 - Shari Noble :.



Dopo essere stata morsa ad un capezzolo dal suo cane, Shari Noble si presenta in clinica per una ricostruzione prima che il marito faccia ritorno dall\'Iraq. Julia continua a rifiutarsi di allattare al seno il piccolo Conor. Christian e Liz si recano in un bar lesbo. Alla fine di un incontro amoroso, Liz si ritrova con un rene in meno. Christian costringe Michelle a raccontargli del suo passato da escort.


.: Caratteristiche Tecniche :.

General
Complete name                    : Nip.Tuck.4x03.Monica.Wilder.ITA.DVDMux.XviD-NovaRip.avi
Format                           : AVI
Format/Info                      : Audio Video Interleave
File size                        : 350 MiB
Duration                         : 42mn 8s
Overall bit rate                 : 1 160 Kbps
Writing application              : VirtualDubMod 1.5.10.2 (build 2540/release)
Writing library                  : VirtualDubMod build 2540/release

Video
ID                               : 0
Format                           : MPEG-4 Visual
Format profile                   : Advanced Simple@L5
Format settings, BVOP            : Yes
Format settings, QPel            : No
Format settings, GMC             : No warppoints
Format settings, Matrix          : Default (H.263)
Muxing mode                      : Packed bitstream
Codec ID                         : XVID
Codec ID/Hint                    : XviD
Duration                         : 42mn 8s
Bit rate                         : 1 023 Kbps
Width                            : 640 pixels
Height                           : 352 pixels
Display aspect ratio             : 16:9
Frame rate                       : 25.000 fps
Resolution                       : 8 bits
Colorimetry                      : 4:2:0
Scan type                        : Progressive
Bits/(Pixel*Frame)               : 0.182
Stream size                      : 308 MiB (88%)
Writing library                  : XviD 1.1.2 (UTC 2006-11-01)

Audio
ID                               : 1
Format                           : MPEG Audio
Format version                   : Version 1
Format profile                   : Layer 3
Format_Settings_Mode             : Joint stereo
Codec ID                         : 55
Codec ID/Hint                    : MP3
Duration                         : 42mn 1s
Bit rate mode                    : Constant
Bit rate                         : 128 Kbps
Channel(s)                       : 2 channels
Sampling rate                    : 44.1 KHz
Stream size                      : 38.5 MiB (11%)
Alignment                        : Split accross interleaves
Interleave, duration             : 40 ms (1.00 video frame)
Interleave, preload duration     : 500 ms


Visit http://www.tntvillage.scambioetico.org/
Info: Per scaricare devi usare un client come uTorrent, o Azureus
AnnounceURL
http://tracker.tntvillage.scambioetico.org:2710/announce
Hash f08706d86a2b4a2bfe91b4e258cb336e17cd5f92
Peers seeds: 4 , leech: 10
Size 698.37 MB
Completato 187x
Aggiunto 18.02.10 - 12:02:01
Uploader   darayava
Votazione (Voti: 0)


Condividi questo bittorrent:


html/blog:


bbcode/forum:


Tramite bookmarks:



Aggiungi Commento