* Dettagli Torrent   globale  | Commenti (0) 


- Nip Tuck s04e06-07 [Mux - XviD - Ita Mp3] [TNTvillage] -


Download via torrent:
                 
Categoria bittorrent SerieTv
Descrizione
Nip Tuck s04e06-07 [Mux - XviD - Ita Mp3] [Tntvillage.Scambioetico]



by Nova Rip - gc22

.: Dati Serie :.

Titolo originale: Nip/Tuck
Genere: Drammatico
Episodi: 15
Anno: 2007
Durata episodio: ~45  Minuti
Creatore: Ryan Murphy
Produzione: Ryan Murphy Production, The Shephard/Robin Company
Cast: Joely Richardson, Dylan Walsh, Roma Maffia, Julian McMahon, John Hensley

.: Trama :.

Due chirurgo-plastici in voga a Miami South Beach si trovano anche loro, in piena crisi di mezza età, a fare i conti con problemi di carriera, famiglia e amore. Sul lettino dei due dottori Sean McNamara e Christian Troy si sdraia l\'America che vuole darci un taglio! Dietro i desideri estetici dei pazienti, il più delle volte il bisturi fa emergere le loro insoddisfazioni, la fragile natura di chi è incapace di accettarsi, più che fisicamente, dal lato psicologico. Troy e McNamara sono amici dai tempi dell\'università, da quando dopo la laurea in Medicina hanno aperto lo studio più in di South Beach. Se il primo ha sviluppato una sorta di cinismo nell\'accettare i casi d\'intervento, anche alla luce degli alti guadagni che gli permettono una vita da playboy, il secondo si dimostra più vulnerabile, soprattutto quando torna a casa dalla famiglia. La moglie Julia ha sacrificato la propria vita a causa della carriera del marito. Anni di sacrifici che ora portano sull\'orlo del divorzio, con l\'idea di riprendere gli studi di medicina. Il figlio adolescente della coppia, Matt, si dimostra più in confidenza con Christian che con Sean...Così come Julia stessa, del resto. A completare il caste, si aggiunge la dottoressa Grace Santiago, la psicologa assunta per valutare i casi che bussano alla loro porta.


.: Episodio 06 - Faith Wolper, PhD :.



Mentre sta preparando la sua luna di miele con Julia, Sean scopre che Monica Wilder non intende lasciarlo solo. La terapista di Christian rivela al suo paziente una ossessione che la tormenta. Dopo aver scoperto che Christian e Michelle hanno una relazione, Burt propone un\'insolita soluzione a tutti i loro problemi. Anche il problema di Sean si risolve in un modo alquanto imprevedibile.


.: Episodio 07 - Burt Landau :.



Dawn Budge necessita al più presto di un intervento all\'orecchio. Burt Landau ha un malore e così chiede a Christian e Sean di dare una ritoccata al suo volto. Christian sospetta che Michelle abbia voluto uccidere suo marito. Liz ha un malore in sala operatoria. Scopre così di avere bisogno di un trapianto di rene. Sean scopre di essere compatibile ma non ha il coraggio di donarle l\'organo.


.: Caratteristiche Tecniche :.

General
Complete name                    : Nip.Tuck.4x07.Burt.Landau.ITA.DVDMux.XviD-NovaRip.avi
Format                           : AVI
Format/Info                      : Audio Video Interleave
File size                        : 349 MiB
Duration                         : 45mn 6s
Overall bit rate                 : 1 081 Kbps
Writing application              : VirtualDubMod 1.5.10.2 (build 2540/release)
Writing library                  : VirtualDubMod build 2540/release

Video
ID                               : 0
Format                           : MPEG-4 Visual
Format profile                   : Advanced Simple@L5
Format settings, BVOP            : Yes
Format settings, QPel            : No
Format settings, GMC             : No warppoints
Format settings, Matrix          : Default (H.263)
Muxing mode                      : Packed bitstream
Codec ID                         : XVID
Codec ID/Hint                    : XviD
Duration                         : 45mn 6s
Bit rate                         : 944 Kbps
Width                            : 640 pixels
Height                           : 352 pixels
Display aspect ratio             : 16:9
Frame rate                       : 25.000 fps
Resolution                       : 8 bits
Colorimetry                      : 4:2:0
Scan type                        : Progressive
Bits/(Pixel*Frame)               : 0.168
Stream size                      : 305 MiB (87%)
Writing library                  : XviD 1.1.2 (UTC 2006-11-01)

Audio
ID                               : 1
Format                           : MPEG Audio
Format version                   : Version 1
Format profile                   : Layer 3
Format_Settings_Mode             : Joint stereo
Codec ID                         : 55
Codec ID/Hint                    : MP3
Duration                         : 44mn 58s
Bit rate mode                    : Constant
Bit rate                         : 128 Kbps
Channel(s)                       : 2 channels
Sampling rate                    : 44.1 KHz
Stream size                      : 41.2 MiB (12%)
Alignment                        : Split accross interleaves
Interleave, duration             : 40 ms (1.00 video frame)
Interleave, preload duration     : 500 ms


Visit http://www.tntvillage.scambioetico.org/
Info: Per scaricare devi usare un client come uTorrent, o Azureus
AnnounceURL
http://tracker.tntvillage.scambioetico.org:2710/announce
Hash 23cc41f0284b5576b63be1c06cc8313ce5dc033e
Peers seeds: 7 , leech: 5
Size 698.17 MB
Completato 167x
Aggiunto 20.02.10 - 09:02:09
Uploader   darayava
Votazione (Voti: 0)


Condividi questo bittorrent:


html/blog:


bbcode/forum:


Tramite bookmarks:



Aggiungi Commento