* Dettagli Torrent   globale  | Commenti (0) 


- [BDRip 720p ITA ENG AC3-SUB] Dorian Gray-LiFE [ultimafrontiera] -


Download via torrent:
                 
Categoria bittorrent DVD
Descrizione


Titolo Originale: Dorian Gray
Nazionalita : Gran Bretagna
Anno : 2009
Genere : Drammatico
Durata : 113
Regia : Oliver Parker

Un quadro eseguito dal pittore Basil Hallward attira l\'attenzione di Lord Henry Wotton che vuole assolutamente conoscere il giovane che vi Ť ritratto. » Dorian Gray un giovane dalla bellezza tanto incantevole che Lord Wotton lo esorta a preservarla come bene supremo. Dorian esprime allora un desiderio: vorrebbe che a invecchiare, al suo posto, fosse il ritratto... Per un inspiegabile sortilegio, il desiderio si avvera, e, mentre Dorian mantiene immutata la sua gioventý, il quadro lentamente invecchia, trascinando l\'eterno giovane verso la sua condanna.




General
Complete name : /[BDRip 720p ITA ENG-AC3-SUB] Dorian Gray-LiFE.mkv
Format : Matroska
File size : 4.06 GiB
Duration : 1h 47mn
Overall bit rate : 5 388 Kbps
Movie name : ~ Dorian Gray 720p - LiFE ~
Encoded date : UTC 2002-01-12 23:09:14
Writing application : mkvmerge v3.0.0 (\'Hang up your Hang-Ups\') built on Dec 12 2009 15:20:35
Writing library : libebml v0.7.9 + libmatroska v0.8.1

Video
ID : 1
Format : AVC
Format/Info : Advanced Video Codec
Format profile : High@L4.1
Format settings, CABAC : Yes
Format settings, ReFrames : 3 frames
Muxing mode : Container profile=Unknown@4.1
Codec ID : V_MPEG4/ISO/AVC
Duration : 1h 47mn
Bit rate : 4 200 Kbps
Width : 1 280 pixels
Height : 720 pixels
Display aspect ratio : 16:9
Frame rate : 25.000 fps
Original frame rate : 23.976 fps
Resolution : 24 bits
Colorimetry : 4:2:0
Scan type : Progressive
Bits/(Pixel*Frame) : 0.182
Stream size : 3.16 GiB (78%)
Writing library : x264 core 77 r1281M 3836218
Encoding settings : cabac=1 / ref=3 / deblock=1:0:0 / analyse=0x3:0x12 / me=dia / subme=2 / psy=1 / psy_rd=0.0:0.0 / mixed_ref=0 / me_range=16 / chroma_me=1 / trellis=0 / 8x8dct=1 / cqm=0 / deadzone=21,11 / chroma_qp_offset=0 / threads=6 / nr=0 / decimate=1 / mbaff=0 / constrained_intra=0 / bframes=3 / b_pyramid=0 / b_adapt=1 / b_bias=0 / direct=1 / wpredb=1 / keyint=24 / keyint_min=2 / scenecut=40 / rc_lookahead=28 / rc=cbr / mbtree=0 / bitrate=4200 / ratetol=1.0 / qcomp=0.50 / qpmin=10 / qpmax=51 / qpstep=4 / vbv_maxrate=25000 / vbv_bufsize=30000 / ip_ratio=1.10 / pb_ratio=1.10 / aq=1:1.00

Audio #1
ID : 2
Format : AC-3
Format/Info : Audio Coding 3
Codec ID : A_AC3
Duration : 1h 47mn
Bit rate mode : Constant
Bit rate : 448 Kbps
Channel(s) : 6 channels
Channel positions : Front: L C R, Surround: L R, LFE
Sampling rate : 48.0 KHz
Video delay : 9s 400ms
Stream size : 346 MiB (8%)
Language : Italian

Audio #2
ID : 3
Format : AC-3
Format/Info : Audio Coding 3
Codec ID : A_AC3
Duration : 1h 47mn
Bit rate mode : Constant
Bit rate : 640 Kbps
Channel(s) : 6 channels
Channel positions : Front: L C R, Surround: L R, LFE
Sampling rate : 48.0 KHz
Stream size : 494 MiB (12%)
Language : English

Text #1
ID : 4
Format : UTF-8
Codec ID : S_TEXT/UTF8
Codec ID/Info : UTF-8 Plain Text
Language : Italian

Text #2
ID : 5
Format : UTF-8
Codec ID : S_TEXT/UTF8
Codec ID/Info : UTF-8 Plain Text
Title : Non udenti
Language : Italian

Text #3
ID : 6
Format : UTF-8
Codec ID : S_TEXT/UTF8
Codec ID/Info : UTF-8 Plain Text
Language : English

http://ufrontiera.altervista.org
Info: Per scaricare devi usare un client come uTorrent, o Azureus
AnnounceURL
http://tracker.token.ro/announce
Hash 0316dc183fb851cae17c7fd33140f5a65e809e01
Peers seeds: 27 , leech: 73
Size 4.06 GB
Completato 10x
Aggiunto 20.02.10 - 14:02:27
Uploader   ultimafrontiera
Votazione (Voti: 0)


Condividi questo bittorrent:


html/blog:


bbcode/forum:


Tramite bookmarks:



Aggiungi Commento