* Dettagli Torrent   globale  | Commenti (0) 


- [BDRip 1080p ITA ENG-AC3 DTS-SUB] Presa Mortale 2-LiFE[ultimafrontiera] -


Download via torrent:
                 
Categoria bittorrent DVD
Descrizione


Titolo Originale: Presa Mortale 2
Nazionalita : USA
Anno : 2009
Genere : Azione/Avventura
Durata : 0
Regia : Roel Reiné

Mentre il sergente dei Marines Joe Linwood si trova in vacanza insieme alla moglie Robin in una meravigliosa località tropicale, un gruppo di terrorosti attacca il loro resort prendendo in ostaggio tutti gli ospiti, chiedendo poi un ingente riscatto per…




General
Complete name                    : /[BDRip 1080p ITA ENG-AC3 DTS-SUB] Presa Mortale 2-LiFE.mkv
Format                           : Matroska
File size                        : 8.03 GiB
Duration                         : 1h 31mn
Overall bit rate                 : 12.6 Mbps
Movie name                       : ~ LiFE ~
Encoded date                     : UTC 2002-01-20 07:20:26
Writing application              : mkvmerge v3.0.0 (\'Hang up your Hang-Ups\') built on Dec 12 2009 15:20:35
Writing library                  : libebml v0.7.9 + libmatroska v0.8.1

Video
ID                               : 1
Format                           : AVC
Format/Info                      : Advanced Video Codec
Format profile                   : High@L4.1
Format settings, CABAC           : Yes
Format settings, ReFrames        : 3 frames
Muxing mode                      : Container profile=Unknown@4.1
Codec ID                         : V_MPEG4/ISO/AVC
Duration                         : 1h 31mn
Bit rate                         : 10.4 Mbps
Nominal bit rate                 : 10.5 Mbps
Width                            : 1 920 pixels
Height                           : 1 080 pixels
Display aspect ratio             : 16:9
Frame rate                       : 25.000 fps
Original frame rate              : 23.976 fps
Resolution                       : 24 bits
Colorimetry                      : 4:2:0
Scan type                        : Progressive
Bits/(Pixel*Frame)               : 0.201
Stream size                      : 6.66 GiB (83%)
Writing library                  : x264 core 77 r1281M 3836218
Encoding settings                : cabac=1 / ref=3 / deblock=1:0:0 / analyse=0x3:0x12 / me=dia / subme=2 / psy=1 / psy_rd=0.0:0.0 / mixed_ref=0 / me_range=16 / chroma_me=1 / trellis=0 / 8x8dct=1 / cqm=0 / deadzone=21,11 / chroma_qp_offset=0 / threads=6 / nr=0 / decimate=1 / mbaff=0 / constrained_intra=0 / bframes=3 / b_pyramid=0 / b_adapt=1 / b_bias=0 / direct=1 / wpredb=1 / keyint=24 / keyint_min=2 / scenecut=40 / rc_lookahead=28 / rc=cbr / mbtree=0 / bitrate=10500 / ratetol=1.0 / qcomp=0.50 / qpmin=10 / qpmax=51 / qpstep=4 / vbv_maxrate=25000 / vbv_bufsize=30000 / ip_ratio=1.10 / pb_ratio=1.10 / aq=1:1.00

Audio #1
ID                               : 2
Format                           : AC-3
Format/Info                      : Audio Coding 3
Codec ID                         : A_AC3
Duration                         : 1h 31mn
Bit rate mode                    : Constant
Bit rate                         : 384 Kbps
Channel(s)                       : 6 channels
Channel positions                : Front: L C R, Surround: L R, LFE
Sampling rate                    : 48.0 KHz
Video delay                      : 600ms
Stream size                      : 251 MiB (3%)
Language                         : Italian

Audio #2
ID                               : 3
Format                           : DTS
Format/Info                      : Digital Theater Systems
Codec ID                         : A_DTS
Duration                         : 1h 31mn
Bit rate mode                    : Constant
Bit rate                         : 1 510 Kbps
Channel(s)                       : 6 channels
Channel positions                : Front: L C R, Surround: L R, LFE
Sampling rate                    : 48.0 KHz
Resolution                       : 24 bits
Stream size                      : 987 MiB (12%)
Title                            : DTS
Language                         : English

Text #1
ID                               : 4
Format                           : UTF-8
Codec ID                         : S_TEXT/UTF8
Codec ID/Info                    : UTF-8 Plain Text
Title                            : Forced
Language                         : Italian

Text #2
ID                               : 5
Format                           : UTF-8
Codec ID                         : S_TEXT/UTF8
Codec ID/Info                    : UTF-8 Plain Text
Language                         : Italian

Text #3
ID                               : 6
Format                           : UTF-8
Codec ID                         : S_TEXT/UTF8
Codec ID/Info                    : UTF-8 Plain Text
Language                         : English

http://ufrontiera.altervista.org
Info: Per scaricare devi usare un client come uTorrent, o Azureus
AnnounceURL
http://tracker.token.ro/announce
Hash 88d0f5a7651852c0fab49a14e98bb766d1653e39
Peers seeds: 8 , leech: 28
Size 8.03 GB
Completato 10x
Aggiunto 28.02.10 - 16:02:53
Uploader   ultimafrontiera
Votazione (Voti: 0)


Condividi questo bittorrent:


html/blog:


bbcode/forum:


Tramite bookmarks:



Aggiungi Commento