* Dettagli Torrent   globale  | Commenti (0) 


- Romeo x Juliet - Ep01-12 [XviD - Ita Jap - Mp3] [Tntvillage] -


Download via torrent:
                 
Categoria bittorrent Anime
Descrizione
Romeo x Juliet - Ep01-12 [XviD - Ita Jap - Mp3] [Tntvillage]




by PittaSk8

Romeo×Juliet è una serie animata basata sull\'opera drammatica di William Shakespeare, intitolata Romeo e Giulietta, portando numerose citazioni dell\'opera dell\'inglese con un cameo dello stesso autore. Durante la serie vi saranno anche altre citazioni sempre di sue opere. L\'anime è apparso negli schermi televisi giapponesi da aprile 2007 grazie al canale Chubu-Nippon Broadcasting, e successivamente su Tokyo Broadcasting System, Kyoto Broadcasting System e SUN-TV. La serie è finita nel 2007 con 24 episodi.




La storia si incentra sull\'amore proibito fra Giulietta e Romeo ostacolata dai loro stessi destini: lui è il figlio del Gran Duca di Neo Verona che prese il potere sulla città uccidendo il precedente Duca, Capuleti, e tutta la sua casata. Lei è proprio la figlia di Capuleti scampata alla strage, colei che dovrà riprendere il potere per porre fine alle angherie che il popolo subisce in continuazione a causa del tiranno






01. Destino
Noi due - Se solo non si fossero incontrati

02. Il segreto
La promessa - Il profumo dei ricordi

03. L\'alba dell\'amore
Attrazione - Uno scherzo crudele

04. Una timida fanciulla
Timidezza - Bagnati dalla pioggia

05. Turbine
Si alza il vento - Una determinazione ardente

06. Speranza
Il domani affidato

07. Calore
Il tocco delle tue mani - Anche solo per questo momento...

08. Dolcezza
La via più facile - La giustizia è...

09. Insurrezione
L\'incrocio - Spazzando la confusione

10. Lacrime
Poterti incontrare

11. Il giuramento
La benedizione del Sole mattutino

12. Riposo
Un porto sicuro - Proprio come siamo ora

Sigla iniziale
Inori You Raise Me Up

Cantata da: Lena Park
Musica originale: Brendan Graham
Testo originale: Rolf Lovland
Musica giapponese: Kaito Okachimachi
Arrangiamento: Masayuki Sakamoto, Satoshi Takebe


 
 


Complete name                    : Romeo X Juliet - 01 - Noi due - [Destino] Se solo non si fossero incontrati [PittaSk8].avi
Format                           : AVI
Format/Info                      : Audio Video Interleave
File size                        : 352 MiB
Duration                         : 23mn 59s
Overall bit rate                 : 2 050 Kbps
Writing application              : VirtualDubMod 1.5.10.2 (build 2540/release)
Writing library                  : VirtualDubMod build 2540/release

Video
ID                               : 0
Format                           : MPEG-4 Visual
Format profile                   : Advanced Simple@L5
Format settings, BVOP            : Yes
Format settings, QPel            : No
Format settings, GMC             : No warppoints
Format settings, Matrix          : Default (H.263)
Codec ID                         : XVID
Codec ID/Hint                    : XviD
Duration                         : 23mn 59s
Bit rate                         : 1 779 Kbps
Width                            : 704 pixels
Height                           : 396 pixels
Display aspect ratio             : 16:9
Frame rate                       : 25.000 fps
Resolution                       : 8 bits
Colorimetry                      : 4:2:0
Scan type                        : Progressive
Bits/(Pixel*Frame)               : 0.255
Stream size                      : 305 MiB (87%)
Writing library                  : xvid0037

Audio #1
ID                               : 1
Format                           : MPEG Audio
Format version                   : Version 1
Format profile                   : Layer 3
Format_Settings_Mode             : Joint stereo / MS Stereo
Codec ID                         : 55
Codec ID/Hint                    : MP3
Duration                         : 23mn 58s
Bit rate mode                    : Constant
Bit rate                         : 128 Kbps
Channel(s)                       : 2 channels
Sampling rate                    : 48.0 KHz
Stream size                      : 22.0 MiB (6%)
Alignment                        : Split accross interleaves
Interleave, duration             : 40 ms (1.00 video frame)
Interleave, preload duration     : 500 ms
Writing library                  : LAME3.98.2

Audio #2
ID                               : 2
Format                           : MPEG Audio
Format version                   : Version 1
Format profile                   : Layer 3
Format_Settings_Mode             : Joint stereo / MS Stereo
Codec ID                         : 55
Codec ID/Hint                    : MP3
Duration                         : 23mn 59s
Bit rate mode                    : Constant
Bit rate                         : 128 Kbps
Channel(s)                       : 2 channels
Sampling rate                    : 48.0 KHz
Stream size                      : 22.0 MiB (6%)
Alignment                        : Split accross interleaves
Interleave, duration             : 40 ms (1.00 video frame)
Interleave, preload duration     : 500 ms

Visit http://www.tntvillage.scambioetico.org/
Info: Per scaricare devi usare un client come uTorrent, o Azureus
AnnounceURL
http://tracker.tntvillage.scambioetico.org:2710/announce
Hash b3fd9d81b3667b4fee944b6f159d4fc1cba1e4cc
Peers seeds: 6 , leech: 83
Size 4.17 GB
Completato 22x
Aggiunto 10.03.10 - 16:03:58
Uploader   darayava
Votazione (Voti: 1)


Condividi questo bittorrent:


html/blog:


bbcode/forum:


Tramite bookmarks:



Aggiungi Commento