* Dettagli Torrent   globale  | Commenti (1) 


- SALERNO ORA X [XviD - Ita Mp3] [Tntvillage] -


Download via torrent:
                 
Categoria bittorrent DVDrip
Descrizione
SALERNO ORA X [XviD - Ita Mp3] [Tntvillage]


SALERNO, ORA X

(A Walk in the Sun)


Visit this info link: Link









Genere: GUERRA
Durata: 117 min
Regia: Lewis Milestone
Scritto da: Robert Rossen e Harry Brown
Prodotto nel 1945
da Lewis Milestone Productions Inc. - 20th Century-fox
Tratto da: romanzo di Harry Brown
Formato: 35 MM
Montaggio: W. Duncan Mansfield
Fotografia: Russell Harlan
Scenografia: Max Bertisch
Soggetto: Harry Brown





Dana Andrews nel ruolo di Sergente Tyne
Richard Conte nel ruolo di Soldato Rivera
George Tyne nel ruolo di Soldato Friedman
John Ireland nel ruolo di Soldato Windy Craven
Lloyd Bridges nel ruolo di Sergente Ward
Sterling Holloway nel ruolo di Mcwilliams
Norman Lloyd nel ruolo di Soldato Archimbeau
Herbert Rudley nel ruolo di Sergente Eddie Porter
Richard Benedict nel ruolo di Soldato Tranella
Huntz Hall nel ruolo di Soldato Carraway
George Offerman nel ruolo di Soldato Tinker
Matt Willis nel ruolo di Sergente Halverson
Chris Drake nel ruolo di Rankin
Victor Cutler nel ruolo di Cousins
Jay Norris nel ruolo di James
John Kellogg nel ruolo di Riddle
Alvin Hammer nel ruolo di Johnson
James Cardwell nel ruolo di Sergente Hoskins
Steve Brodie nel ruolo di Soldato Judson





Nel settembre del 1943 un reparto alleato effettua uno sbarco sulla costa salernitana. Il tenente che lo comanda viene colpito ed ucciso prima di toccare terra: il comando passa al sergente pi anziano. L\'obiettivo designato una fattoria isolata a circa sei chilometri dalla spiaggia. Il nemico non d segni di vita: il reparto vien fatto avanzare lentamente. In seguito alla forte tensione nervosa, il sergente comandante subisce un collasso e cade a terra. Il comando passa al sergente Tyns: dopo aver distrutto un\'autoblindo tedesca, in perlustrazione, il reparto riprende la marcia verso la fattoria che viene infine avvistata. La casa sembra disabitata: nessun segno che riveli la presenza del nemico. Ma quando quattro uomini, strisciando sul ventre, tentano d\'avvicinarsi alla fattoria, una scarica di mitraglia parte dalle finestre uccidendo un fante. Tyns divide i suoi uomini e l\'attacco viene condotto simultaneamente da tre parti con l\'appoggio d\'una mitragliatrice. Alcuni degli assalitori rimangono sul terreno ma il nemico sopraffatto: l\'obiettivo raggiunto.




\"Nel lavoro, piuttosto lento nella prima parte, c\' qua e l qualche interessante dettaglio: efficace la recitazione, buona la fotografia\"
(\'Segnalazioni cinematografiche\', 1952)











General
Complete name                    : SALERNO ORA X.avi
Format                           : AVI
Format/Info                      : Audio Video Interleave
File size                        : 704 MiB
Duration                         : 1h 57mn
Overall bit rate                 : 837 Kbps

Video
ID                               : 0
Format                           : MPEG-4 Visual
Format profile                   : Advanced Simple@L5
Format settings, BVOP            : Yes
Format settings, QPel            : No
Format settings, GMC             : No warppoints
Format settings, Matrix          : Default (H.263)
Muxing mode                      : Packed bitstream
Codec ID                         : XVID
Codec ID/Hint                    : XviD
Duration                         : 1h 57mn
Bit rate                         : 700 Kbps
Width                            : 720 pixels
Height                           : 576 pixels
Display aspect ratio             : 5:4
Frame rate                       : 25.000 fps
Standard                         : PAL
Resolution                       : 8 bits
Colorimetry                      : 4:2:0
Scan type                        : Progressive
Bits/(Pixel*Frame)               : 0.068
Stream size                      : 589 MiB (84%)
Writing library                  : XviD 1.1.0 (UTC 2005-11-22)

Audio
ID                               : 1
Format                           : MPEG Audio
Format version                   : Version 1
Format profile                   : Layer 3
Codec ID                         : 55
Codec ID/Hint                    : MP3
Duration                         : 1h 57mn
Bit rate mode                    : Constant
Bit rate                         : 128 Kbps
Channel(s)                       : 2 channels
Sampling rate                    : 48.0 KHz
Video delay                      : 24ms
Stream size                      : 108 MiB (15%)
Alignment                        : Split accross interleaves
Interleave, duration             : 48 ms (1.20 video frame)



Visit http://www.tntvillage.scambioetico.org/
Info: Per scaricare devi usare un client come uTorrent, o Azureus
AnnounceURL
http://tracker.tntvillage.scambioetico.org:2710/announce
Hash f537a29faefcfa04090a670ad60faf4906df36d8
Peers seeds: 21 , leech: 24
Size 704.13 MB
Completato 397x
Aggiunto 03.04.10 - 09:04:13
Uploader   darayava
Votazione (Voti: 0)


Condividi questo bittorrent:


html/blog:


bbcode/forum:


Tramite bookmarks:



Aggiungi Commento
Ultimi commenti
 IFRID1964IFRID1964   
FAKE. trattasi di dragon trainer e in pessima versione, inguardabile. non scaricate.
08/04 15.24
Tutti commenti (1)