* Dettagli Torrent   globale  | Commenti (0) 


- Lagente speciale Pinkerton [XviD - Ita Mp3] [Tntvillage] -


Download via torrent:
                 
Categoria bittorrent DVDrip
Descrizione
L\'agente speciale Pinkerton[XviD - Ita Mp3] [Tntvillage]


L\'AGENTE SPECIALE PINKERTON

(RAGE AT DAWN )


Visit this info link: Link









Titolo originale: Rage at Dawn
Paese: USA
Anno: 1955
Durata: 87 min
Colore: b/n
Audio: Mono (RCA Sound System)
Rapporto: 1.85 : 1
Genere: western
Regia: Tim Whelan
Produttore: RKO Radio Pictures




Randolph Scott ... James Barlow
Forrest Tucker ... Frank Reno
Mala Powers ... Laura Reno
J. Carrol Naish ... Simeon \'Sim\' Reno
Edgar Buchanan ... Giudice
Myron Healey ... John Reno
Howard Petrie ... Lattimore, Prosecuting Attorney
Ray Teal ... Sheriff of Seymour
William Forrest ... William Peterson
Denver Pyle ... Clint Reno
Trevor Bardette ... Fisher
Kenneth Tobey ... Monk Claxton






Due agenti segreti per smascherare le malefatte di una banda di malviventi che opera indisturbata, sotto la copertura di sceriffi e magistrati corrotti, in quel dell\'Indiana, organizzano l\'assalto a un treno. Catturati vengono imprigionati e giustiziati senza possibilit di difesa.




Western prodotto dalla Rko sulla base di un libro di McCoy. Gli elementi del poliziesco lo riscattano dal genere che frequenta malamente.










General
Complete name                    : L_agente speciale Pinkerton.avi
Format                           : AVI
Format/Info                      : Audio Video Interleave
File size                        : 500 MiB
Duration                         : 1h 23mn
Overall bit rate                 : 837 Kbps

Video
ID                               : 0
Format                           : MPEG-4 Visual
Format profile                   : Advanced Simple@L5
Format settings, BVOP            : Yes
Format settings, QPel            : No
Format settings, GMC             : No warppoints
Format settings, Matrix          : Default (H.263)
Muxing mode                      : Packed bitstream
Codec ID                         : XVID
Codec ID/Hint                    : XviD
Duration                         : 1h 23mn
Bit rate                         : 700 Kbps
Width                            : 720 pixels
Height                           : 576 pixels
Display aspect ratio             : 5:4
Frame rate                       : 25.000 fps
Standard                         : PAL
Resolution                       : 8 bits
Colorimetry                      : 4:2:0
Scan type                        : Progressive
Bits/(Pixel*Frame)               : 0.068
Stream size                      : 418 MiB (84%)
Writing library                  : XviD 1.1.0 (UTC 2005-11-22)

Audio
ID                               : 1
Format                           : MPEG Audio
Format version                   : Version 1
Format profile                   : Layer 3
Codec ID                         : 55
Codec ID/Hint                    : MP3
Duration                         : 1h 23mn
Bit rate mode                    : Constant
Bit rate                         : 128 Kbps
Channel(s)                       : 2 channels
Sampling rate                    : 48.0 KHz
Video delay                      : 24ms
Stream size                      : 76.4 MiB (15%)
Alignment                        : Split accross interleaves
Interleave, duration             : 48 ms (1.20 video frame)


Visit http://www.tntvillage.scambioetico.org/
Info: Per scaricare devi usare un client come uTorrent, o Azureus
AnnounceURL
http://tracker.tntvillage.scambioetico.org:2710/announce
Hash 321adabd9e0609f740a3578256ec3aa0fb84671d
Peers seeds: 11 , leech: 13
Size 499.79 MB
Completato 153x
Aggiunto 03.04.10 - 13:04:08
Uploader   darayava
Votazione (Voti: 0)


Condividi questo bittorrent:


html/blog:


bbcode/forum:


Tramite bookmarks:



Aggiungi Commento