* Dettagli Torrent   globale  | Commenti (0) 


- Carambola damore - The intruder [XviD - Ita - Mp3] [Tntvillage] -


Download via torrent:
                 
Categoria bittorrent DVDrip
Descrizione
Carambola d\'amore - The intruder [XviD - Ita - Mp3] [Tntvillage]

CARAMBOLA D\'AMORE

(THE INTRUDER)


Visit this info link: Link









REGIA: Willis Goldbeck
SCENEGGIATURA: William Ludwig, Harry Ruskin
FOTOGRAFIA: Robert H. Planck
MONTAGGIO: Cotton Warburton
PRODUZIONE: ROBERT SISK
DISTRIBUZIONE: DCN
PAESE: USA 1947
GENERE: Comico, Commedia
DURATA: 93 Min
FORMATO: B/N
SOGGETTO: personaggi di Aurania Rouverol




Mickey Rooney ... Andrew \'Andy\' Hardy
Lewis Stone ... Giudice James K. Hardy
Bonita Granville ... Kay Wilson
Sara Haden ... Zia Milly Forrest
Lina Romay ... Miss Isobel Gonzales






Andy, l\'unico figlio del giudice Hardy, torna a casa dopo il servizio militare. Il suo strano comportamento per˛ preoccupa i genitori, in effetti appare trasognato e insensibile alle moine di Isabel. Il problema Ŕ che Andy Ŕ innamorato della bella Kitty, sua compagna d\'universitÓ, la quale decide di sposare, con grande sua delusione, il suo tutore, un ricco industriale trentacinquenne. Inoltre Andy Ŕ chiamato a fare da testimone alle nozze. Ferito intimamente, Andy giura che non studierÓ pi¨ legge, ma si dedicherÓ al commercio o all\'industria. Ma grazie al padre e alle moine d\'Isabel, tutto tornerÓ alla normalitÓ.










General
Complete name                    : Carambola d_amore.avi
Format                           : AVI
Format/Info                      : Audio Video Interleave
File size                        : 560 MiB
Duration                         : 1h 33mn
Overall bit rate                 : 837 Kbps

Video
ID                               : 0
Format                           : MPEG-4 Visual
Format profile                   : Advanced Simple@L5
Format settings, BVOP            : Yes
Format settings, QPel            : No
Format settings, GMC             : No warppoints
Format settings, Matrix          : Default (H.263)
Muxing mode                      : Packed bitstream
Codec ID                         : XVID
Codec ID/Hint                    : XviD
Duration                         : 1h 33mn
Bit rate                         : 700 Kbps
Width                            : 720 pixels
Height                           : 576 pixels
Display aspect ratio             : 5:4
Frame rate                       : 25.000 fps
Standard                         : PAL
Resolution                       : 8 bits
Colorimetry                      : 4:2:0
Scan type                        : Progressive
Bits/(Pixel*Frame)               : 0.068
Stream size                      : 468 MiB (84%)
Writing library                  : XviD 1.1.0 (UTC 2005-11-22)

Audio
ID                               : 1
Format                           : MPEG Audio
Format version                   : Version 1
Format profile                   : Layer 3
Codec ID                         : 55
Codec ID/Hint                    : MP3
Duration                         : 1h 33mn
Bit rate mode                    : Constant
Bit rate                         : 128 Kbps
Channel(s)                       : 2 channels
Sampling rate                    : 48.0 KHz
Video delay                      : 24ms
Stream size                      : 85.6 MiB (15%)
Alignment                        : Split accross interleaves
Interleave, duration             : 48 ms (1.20 video frame)

Visit http://www.tntvillage.scambioetico.org/
Info: Per scaricare devi usare un client come uTorrent, o Azureus
AnnounceURL
http://tracker.tntvillage.scambioetico.org:2710/announce
Hash 923140a643d37dd803fa4eb477dadb35c5dc0438
Peers seeds: 14 , leech: 6
Size 559.81 MB
Completato 101x
Aggiunto 04.04.10 - 15:04:34
Uploader   darayava
Votazione (Voti: 0)


Condividi questo bittorrent:


html/blog:


bbcode/forum:


Tramite bookmarks:



Aggiungi Commento