* Dettagli Torrent   globale  | Commenti (0) 


- Il traditore - The informer [XviD - Ita - Mp3] [Tntvillage] -


Download via torrent:
                 
Categoria bittorrent DVDrip
Descrizione
Il traditore - The informer [XviD - Ita - Mp3] [Tntvillage]


IL TRADITORE

(THE INFORMER)


Visit this info link: Link









REGIA: John Ford
SCENEGGIATURA: Dudley Nichols, Lamar Trotti
FOTOGRAFIA: Joseph H. August
MONTAGGIO: George Hively
MUSICHE: Max Steiner
PRODUZIONE: RKO RADIO
DISTRIBUZIONE: MINERVA - PANTMEDIA
PAESE: USA 1935
GENERE: Drammatico
DURATA: 91 Min
FORMATO: B/N
SOGGETTO: dal romando si Liam O\'Flaherty
PRODUTTORE ASSOCIATO: Cliff Reid
ARREDATORE: Julia Heron
COSTUMI: Walter Plunkett
PREMI OSCAR PER MIGLIOR REGIA, MIGLIOR ATTORE, MIGLIOR SCENEGGIATURA NON ORIGINALE, MIGLIOR COLONNA SONORA





Victor McLaglen ... Gypo Nolan
Heather Angel ... Mary Mc Phillip
Preston Foster ... Dan Gallagher
Margot Grahame ... Kattie Madden
Wallace Ford ... Franchie Pc Phillip
Una O\'Connor ... Signora Mc Phillip
Donald Meek ... Pat Mulligan
Francis Ford ... \"Judge\" Flynn
Dennis O\'Dea ... L\'Uomo Che Canta
Jack Mulhall ... La Gaurdia
Gaylord Pendleton ... Daley
Robert Parrish ... Soldato
Joe Sawyer ... Bartley Mouholland
J.M. Kerrigan ... Terry
Grizelda Harvey ... Ragazza Obbediente
Frank Moran ... Mccabe
Arthur McLaglen ... Un Uomo
May Boley ... Signora Betty
Barlowe Borland ... Un Uomo
Leo Cabe ... Donahue
Clyde Cook ... Padrone Del Flash
D\'Arcy Corrigan ... Il Cieco
Neil Fitzgerald ... Tommy Conner






Durante l\'insurrezione per l\'indipendenza irlandese del 1922 un ribelle denuncia un proprio compagno di fede per venti sterline. Attanagliato dai rimorsi dissipa in una notte di bagordi il frutto del tradimento. La improvvisa sua prodigalità insospettisce il tribunale dei ribelli che raggiunge in breve le prove della sua colpevolezza e lo condanna a morte. Inutilmente egli tenta di sfuggire all\'esecuzione e cade, in un tentativo di evasione, sotto i colpi della giustizia segreta dei ribelli. Riesce a trascinarsi morente in una chiesa e ad ottenere il perdono della madre della sua vittima.




Uscito nelle sale il 1 maggio del 1935 e premiato con 4 Oscar (regia, sceneggiatura, musica, protagonista), The Informer, è il film che consacrò definitivamente John Ford come regista. Si ricostruì in studio un intero quartiere di Dublino degli anni ’20. Luci, ambienti, e scene furono organizzati in modo tale da evocare le atmosfere del cinema espressionista tedesco, che era universalmente considerato cinema artistico per eccellenza. Lo sforzo fu  quello di produrre un film d’arte di sapore europeo, tanto che lo stesso appare un po’ anomalo nella filmografia di Ford. Il regista si sentì molto impegnato nell’impresa, partecipando anche alla sceneggiatura, perché si sentiva molto legato al Sinn Fein, alla sua patria, e all’epopea dell’indipendenza irlandese. Parte del fascino di The Informer, è dovuta alla fotografia (forti contrasti, luci di taglio, controluci notturne, selciati umidi, filtri diffusori) ed alla interpretazione del migliore (grosso, goffo, impacciato, fragile) Victor McLaglen che sia mai comparso davanti all’obiettivo. L’angoscia di questo traditore incosciente è inserita in un dramma sociale ben più grave, in cui il regista inserisce il tema cattolico di fondo.
Il tema del peccato e del perdono finale chiude e dà una luce al giovane cattolico smarrito e pentito, rendendo per un attimo il film meno cupo e desolato.











General
Complete name                    : Il traditore.avi
Format                           : AVI
Format/Info                      : Audio Video Interleave
File size                        : 552 MiB
Duration                         : 1h 32mn
Overall bit rate                 : 837 Kbps

Video
ID                               : 0
Format                           : MPEG-4 Visual
Format profile                   : Advanced Simple@L5
Format settings, BVOP            : Yes
Format settings, QPel            : No
Format settings, GMC             : No warppoints
Format settings, Matrix          : Default (H.263)
Muxing mode                      : Packed bitstream
Codec ID                         : XVID
Codec ID/Hint                    : XviD
Duration                         : 1h 32mn
Bit rate                         : 700 Kbps
Width                            : 720 pixels
Height                           : 576 pixels
Display aspect ratio             : 5:4
Frame rate                       : 25.000 fps
Standard                         : PAL
Resolution                       : 8 bits
Colorimetry                      : 4:2:0
Scan type                        : Progressive
Bits/(Pixel*Frame)               : 0.068
Stream size                      : 462 MiB (84%)
Writing library                  : XviD 1.1.0 (UTC 2005-11-22)

Audio
ID                               : 1
Format                           : MPEG Audio
Format version                   : Version 1
Format profile                   : Layer 3
Codec ID                         : 55
Codec ID/Hint                    : MP3
Duration                         : 1h 32mn
Bit rate mode                    : Constant
Bit rate                         : 128 Kbps
Channel(s)                       : 2 channels
Sampling rate                    : 48.0 KHz
Video delay                      : 24ms
Stream size                      : 84.5 MiB (15%)
Alignment                        : Split accross interleaves
Interleave, duration             : 48 ms (1.20 video frame)


Visit http://www.tntvillage.scambioetico.org/
Info: Per scaricare devi usare un client come uTorrent, o Azureus
AnnounceURL
http://tracker.tntvillage.scambioetico.org:2710/announce
Hash e1e365c3f7d46626e055fdc0d05c8e8d15f639a8
Peers seeds: 25 , leech: 18
Size 552.21 MB
Completato 293x
Aggiunto 04.04.10 - 20:04:14
Uploader   darayava
Votazione (Voti: 0)


Condividi questo bittorrent:


html/blog:


bbcode/forum:


Tramite bookmarks:



Aggiungi Commento