* Dettagli Torrent   globale  | Commenti (0) 


- Sherlock Holmes - La donna in verde [XviD - Ita - Mp3] [Tntvillage] -


Download via torrent:
                 
Categoria bittorrent DVDrip
Descrizione
Sherlock Holmes - La donna in verde [XviD - Ita - Mp3] [Tntvillage]

SHERLOCK HOLMES

LA DONNA IN VERDE

(THE WOMAN IN GREEN)


Visit this info link: Link









REGIA: Roy William Neill
PAESE: USA 1945
GENERE: Giallo
DURATA: 68 Min
FORMATO: B/N





Basil Rathbone ... Sherlock Holmes
Nigel Bruce ... Dr. John H. Watson
Hillary Brooke ... Lydia Marlowe
Henry Daniell ... Professor Moriarty






Una serie di strani delitti, apparentemente non collegati fra loro, terrorizza Londra.
Forse Ŕ un serial killer che uccide le donne e le mutila di un dito della mano destra?
Tutto conduce a una societÓ di Ipnotisti e a una misteriosa e affascinante donna.
Scotland Yard non sa come risolvere il caso e si affida all\'abilitÓ di Sherlock Holmes





Basil Rathbone ha segnato profondamente nell\'immaginario televisivo la figura dell\'investigatore anglosassone.
La sua recitazione Ŕ passata alla storia del cinema poliziesco: impossibile oggi pensare a Sherlock Holmes senza dargli il volto di questo grande e celebre attore.
L\'intelligenza deduttiva di questo immortale investigatore privato si misura contro criminali geniali e terribili, in una partita che appassiona gli spettatori anche pi¨ giovani.











General
Complete name                    : Sherlock Holmes - La donna in verde.avi
Format                           : AVI
Format/Info                      : Audio Video Interleave
File size                        : 394 MiB
Duration                         : 1h 5mn
Overall bit rate                 : 837 Kbps

Video
ID                               : 0
Format                           : MPEG-4 Visual
Format profile                   : Advanced Simple@L5
Format settings, BVOP            : Yes
Format settings, QPel            : No
Format settings, GMC             : No warppoints
Format settings, Matrix          : Default (H.263)
Muxing mode                      : Packed bitstream
Codec ID                         : XVID
Codec ID/Hint                    : XviD
Duration                         : 1h 5mn
Bit rate                         : 700 Kbps
Width                            : 720 pixels
Height                           : 576 pixels
Display aspect ratio             : 5:4
Frame rate                       : 25.000 fps
Standard                         : PAL
Resolution                       : 8 bits
Colorimetry                      : 4:2:0
Scan type                        : Progressive
Bits/(Pixel*Frame)               : 0.068
Stream size                      : 330 MiB (84%)
Writing library                  : XviD 1.1.0 (UTC 2005-11-22)

Audio
ID                               : 1
Format                           : MPEG Audio
Format version                   : Version 1
Format profile                   : Layer 3
Codec ID                         : 55
Codec ID/Hint                    : MP3
Duration                         : 1h 5mn
Bit rate mode                    : Constant
Bit rate                         : 128 Kbps
Channel(s)                       : 2 channels
Sampling rate                    : 48.0 KHz
Video delay                      : 24ms
Stream size                      : 60.3 MiB (15%)
Alignment                        : Split accross interleaves
Interleave, duration             : 48 ms (1.20 video frame)


Visit http://www.tntvillage.scambioetico.org/
Info: Per scaricare devi usare un client come uTorrent, o Azureus
AnnounceURL
http://tracker.tntvillage.scambioetico.org:2710/announce
Hash a8df8cbe47f828fd6d00a93ec9a5313470d39da3
Peers seeds: 22 , leech: 8
Size 394.48 MB
Completato 511x
Aggiunto 05.04.10 - 15:04:56
Uploader   darayava
Votazione (Voti: 0)


Condividi questo bittorrent:


html/blog:


bbcode/forum:


Tramite bookmarks:



Aggiungi Commento