* Dettagli Torrent   globale  | Commenti (0) 


- [BDRip 720p ITA ENG-AC3-SUB] Hachiko-Il Tuo Miglior Amico-LiFE -


Download via torrent:
                 
Categoria bittorrent DVD
Descrizione


Titolo Originale: Hachiko: A Dog\'s Story
Nazionalita : USA
Anno : 2009
Genere : Drammatico
Durata : 93
Regia : Lasse Hallstr÷m

Hachi Ŕ un cane di razza akita e ogni giorno accompagna il suo padrone, il professor Parker (Richard Gere), alla stazione e lo aspetta al suo ritorno per dargli il benvenuto. Un giorno per˛ questa routine viene interrotta. Tutto quello che accade da quel momento in poi ha dello straordinario, come straordinaria Ŕ la dedizione di Hachi.



General
Complete name                    : /[BDRip 720p ITA ENG-AC3-SUB] Hachiko-Il Tuo Miglior Amico-LiFE.mkv
Format                           : Matroska
File size                        : 4.06 GiB
Duration                         : 1h 29mn
Overall bit rate                 : 6 502 Kbps
Movie name                       : ~ LiFE ~
Encoded date                     : UTC 2010-04-09 14:17:24
Writing application              : mkvmerge v3.0.0 (\'Hang up your Hang-Ups\') built on Dec 12 2009 19:05:48
Writing library                  : libebml v0.7.7 + libmatroska v0.8.1

Video
ID                               : 1
Format                           : AVC
Format/Info                      : Advanced Video Codec
Format profile                   : High@L4.1
Format settings, CABAC           : Yes
Format settings, ReFrames        : 9 frames
Muxing mode                      : Container profile=Unknown@4.1
Codec ID                         : V_MPEG4/ISO/AVC
Duration                         : 1h 29mn
Bit rate                         : 5 285 Kbps
Nominal bit rate                 : 5 191 Kbps
Width                            : 1 280 pixels
Height                           : 690 pixels
Display aspect ratio             : 1.855
Frame rate                       : 25.000 fps
Original frame rate              : 23.976 fps
Resolution                       : 24 bits
Colorimetry                      : 4:2:0
Scan type                        : Progressive
Bits/(Pixel*Frame)               : 0.239
Stream size                      : 3.30 GiB (81%)
Title                            : Hachiko.A.Dog\'s.Story.2009.BluRay.720p.DTS.x264-CHD
Writing library                  : x264 core 84 r1416 fcf70c2
Encoding settings                : cabac=1 / ref=9 / deblock=1:-3:-3 / analyse=0x3:0x113 / me=umh /
subme=9 / psy=1 / psy_rd=1.0:0.1 / mixed_ref=1 / me_range=64 / chroma_me=1 / trellis=2 /
8x8dct=1 / cqm=2 / deadzone=21,11 / fast_pskip=0 / chroma_qp_offset=-2 / threads=12 /
sliced_threads=0 / nr=0 / decimate=1 / mbaff=0 / constrained_intra=0 / bframes=3 / b_pyramid=2
/ b_adapt=2 / b_bias=0 / direct=3 / wpredb=1 / wpredp=2 / keyint=250 / keyint_min=25 / scenecut=40
/ intra_refresh=0 / rc_lookahead=60 / rc=2pass / mbtree=1 / bitrate=5191 / ratetol=1.0 / qcomp=0.60 /
qpmin=10 / qpmax=51 / qpstep=4 / cplxblur=20.0 / qblur=0.5 / vbv_maxrate=50000 / vbv_bufsize=50000 / i
p_ratio=1.40 / aq=1:0.60

Audio #1
ID                               : 2
Format                           : AC-3
Format/Info                      : Audio Coding 3
Codec ID                         : A_AC3
Duration                         : 1h 29mn
Bit rate mode                    : Constant
Bit rate                         : 448 Kbps
Channel(s)                       : 6 channels
Channel positions                : Front: L C R, Surround: L R, LFE
Sampling rate                    : 48.0 KHz
Video delay                      : 14s 0ms
Stream size                      : 287 MiB (7%)
Language                         : Italian

Audio #2
ID                               : 3
Format                           : AC-3
Format/Info                      : Audio Coding 3
Codec ID                         : A_AC3
Duration                         : 1h 29mn
Bit rate mode                    : Constant
Bit rate                         : 640 Kbps
Channel(s)                       : 6 channels
Channel positions                : Front: L C R, Surround: L R, LFE
Sampling rate                    : 48.0 KHz
Stream size                      : 409 MiB (10%)
Language                         : English

Text #1
ID                               : 4
Format                           : UTF-8
Codec ID                         : S_TEXT/UTF8
Codec ID/Info                    : UTF-8 Plain Text
Title                            : Forced
Language                         : Italian

Text #2
ID                               : 5
Format                           : UTF-8
Codec ID                         : S_TEXT/UTF8
Codec ID/Info                    : UTF-8 Plain Text
Language                         : Italian

Text #3
ID                               : 6
Format                           : UTF-8
Codec ID                         : S_TEXT/UTF8
Codec ID/Info                    : UTF-8 Plain Text
Title                            : Non udenti
Language                         : Italian

Text #4
ID                               : 7
Format                           : UTF-8
Codec ID                         : S_TEXT/UTF8
Codec ID/Info                    : UTF-8 Plain Text
Language                         : English
Info: Per scaricare devi usare un client come uTorrent, o Azureus
AnnounceURL
http://genesis.1337x.org:1337/announce
Hash 79cd4591b3949ec4211874c579a9436d9960d1f2
Peers seeds: 9 , leech: 73
Size 4.06 GB
Completato 19x
Aggiunto 09.04.10 - 17:04:53
Uploader   ultimafrontiera
Votazione (Voti: 0)


Condividi questo bittorrent:


html/blog:


bbcode/forum:


Tramite bookmarks:



Aggiungi Commento