* Dettagli Torrent   globale  | Commenti (0) 


- Sherlock Holmes e l arma misteriosa [XviD - Ita Mp3] [Tntvillage] -


Download via torrent:
                 
Categoria bittorrent DVDrip
Descrizione
Sherlock Holmes e l arma misteriosa [XviD - Ita Mp3] [Tntvillage]

SHERLOCK HOLMES

E L\'ARMA SEGRETA

(SHERLOCK HOLMES AND SECRET WEAPON)


Visit this info link: Link









REGIA: Roy William Neill
SCENEGGIATURA: Edward T. Lowe Jr., Scott Darling, Edmund L. Hartmann
FOTOGRAFIA: Lester White
MONTAGGIO: Otto Ludwig
MUSICHE: Frank Skinner
PRODUZIONE: UNIVERSAL
PAESE: USA 1943
GENERE: Giallo, Thriller
DURATA: 80 Min
FORMATO: B/N
SOGGETTO: dal romanzo di Arthur Conan Doyle, The adventure of dancing men





Basil Rathbone ... Sherlock Holmes
Nigel Bruce ... Dr. Watson
Kaaren Verne ... Charlotte Eberli
Lionel Atwill ... Prof. Moriarty
Dennis Hoey ... Ispettore Lestrade
William Post Jr. ... Dr. Franz Tobel
Holmes Herbert ... Sir Reginald Bailey
Mary Gordon ... Mrs. Hudson
Paul Fix ... Mueller
Harry Cording ... Jack Brady






La Gestapo è sulle tracce dello scienziato Franz Tobel, per impedirgli di portare a termine l\'invenzione di un\'arma ad alta precisione da installare sui bombardieri, che potrebbe decidere le sorti della guerra. Dalla Svizzera, dove Tobel si trova, Sherlock Holmes, attraverso una serie di peripezie, lo salva e lo porta con sé a Londra. Una volta qui però Tobel teme che la sua invenzione possa essere rubata dai Tedeschi e decide, allora, di affidarne la produzione a quattro scienziati di cui si fida e di cui è l\'unico a conoscere i nomi, contenuti in un ingegnoso codice crittografato. Ognuno degli scienziati lavora per proprio conto su una parte del progetto ignorando completamente il lavoro degli altri tre. Quando il professor Moriarty rapisce Tobel per vendere l\'invenzione al Terzo Reich, Holmes riesce, in una disperata lotta contro il tempo, a decifrare il codice e salvare l\'invenzione dalle mani dei nazisti.




Sherlock Holmes e l’arma segreta è un film del 1942 di Roy William Neill sempre con Rathbone che vi vogliamo segnalare perché in questo caso una figura vittoriana viene utilizzata in un’avventura che si svolge in pieno secondo conflitto mondiale, proprio perché Holmes essendo un’icona - come dimostra anche l’ultimo di film di Ritchie - può viaggiare avanti e indietro nel tempo senza che la sua modernità e il suo fascino vengano minimamente scalfiti.










General
Complete name                    : /Users/computer/Desktop/Sherlock Holmes e l_arma misteriosa.avi
Format                           : AVI
Format/Info                      : Audio Video Interleave
File size                        : 398 MiB
Duration                         : 1h 6mn
Overall bit rate                 : 837 Kbps

Video
ID                               : 0
Format                           : MPEG-4 Visual
Format profile                   : Advanced Simple@L5
Format settings, BVOP            : Yes
Format settings, QPel            : No
Format settings, GMC             : No warppoints
Format settings, Matrix          : Default (H.263)
Muxing mode                      : Packed bitstream
Codec ID                         : XVID
Codec ID/Hint                    : XviD
Duration                         : 1h 6mn
Bit rate                         : 700 Kbps
Width                            : 720 pixels
Height                           : 576 pixels
Display aspect ratio             : 5:4
Frame rate                       : 25.000 fps
Standard                         : PAL
Resolution                       : 8 bits
Colorimetry                      : 4:2:0
Scan type                        : Progressive
Bits/(Pixel*Frame)               : 0.068
Stream size                      : 333 MiB (84%)
Writing library                  : XviD 1.1.0 (UTC 2005-11-22)

Audio
ID                               : 1
Format                           : MPEG Audio
Format version                   : Version 1
Format profile                   : Layer 3
Codec ID                         : 55
Codec ID/Hint                    : MP3
Duration                         : 1h 6mn
Bit rate mode                    : Constant
Bit rate                         : 128 Kbps
Channel(s)                       : 2 channels
Sampling rate                    : 48.0 KHz
Video delay                      : 24ms
Stream size                      : 60.8 MiB (15%)
Alignment                        : Split accross interleaves
Interleave, duration             : 48 ms (1.20 video frame)


Visit http://www.tntvillage.scambioetico.org/
Info: Per scaricare devi usare un client come uTorrent, o Azureus
AnnounceURL
http://tracker.tntvillage.scambioetico.org:2710/announce
Hash 2f4041fd5280ba75e84f13f60df902afd51077bb
Peers seeds: 34 , leech: 16
Size 397.64 MB
Completato 523x
Aggiunto 10.04.10 - 13:04:26
Uploader   darayava
Votazione (Voti: 0)


Condividi questo bittorrent:


html/blog:


bbcode/forum:


Tramite bookmarks:



Aggiungi Commento