* Dettagli Torrent   globale  | Commenti (0) 


- [BDRip 720p ITA ENG-AC3-SUB] Arthur e la Vendetta di Maltazard-LiFE -


Download via torrent:
                 
Categoria bittorrent DVD
Descrizione


Titolo Originale: Arthur et la vengeance de Maltazard
Nazionalita : Francia
Anno : 2009
Genere : Animazione
Durata : 93
Regia : Luc Besson



General
Complete name                    :/[BDRip 720p ITA ENG-AC3-SUB] Arthur e la vendetta di Maltazard-LiFE.mkv
Format                           : Matroska
File size                        : 4.18 GiB
Duration                         : 1h 29mn
Overall bit rate                 : 6 646 Kbps
Movie name                       : ~ LiFE ~
Encoded date                     : UTC 2010-04-10 15:27:51
Writing application              : mkvmerge v3.0.0 (\'Hang up your Hang-Ups\') built on Dec 12 2009 19:05:48
Writing library                  : libebml v0.7.7 + libmatroska v0.8.1

Video
ID                               : 1
Format                           : AVC
Format/Info                      : Advanced Video Codec
Format profile                   : High@L4.1
Format settings, CABAC           : Yes
Format settings, ReFrames        : 3 frames
Muxing mode                      : Container profile=Unknown@4.1
Codec ID                         : V_MPEG4/ISO/AVC
Duration                         : 1h 29mn
Bit rate                         : 5 233 Kbps
Nominal bit rate                 : 5 152 Kbps
Width                            : 1 280 pixels
Height                           : 544 pixels
Display aspect ratio             : 2.35:1
Frame rate                       : 25.000 fps
Original frame rate              : 24.000 fps
Resolution                       : 24 bits
Colorimetry                      : 4:2:0
Scan type                        : Progressive
Bits/(Pixel*Frame)               : 0.301
Stream size                      : 3.29 GiB (79%)
Writing library                  : x264 core 75 r1251M e553a4c
Encoding settings                : cabac=1 / ref=3 / deblock=1:0:0 / analyse=0x3:0x133 / me=umh /
subme=7 / psy=1 / psy_rd=1.0:0.0 / mixed_ref=1 / me_range=16 / chroma_me=1 / trellis=1 /
8x8dct=1 / cqm=0 / deadzone=21,11 / chroma_qp_offset=-2 / threads=6 / nr=0 / decimate=1 /
mbaff=0 / bframes=3 / b_pyramid=0 / b_adapt=1 / b_bias=0 / direct=3 / wpredb=1 / keyint=240 /
keyint_min=24 / scenecut=40 / rc_lookahead=40 / rc=2pass / mbtree=1 / bitrate=5152 / ratetol=1.0 /
qcomp=0.60 / qpmin=10 / qpmax=51 / qpstep=4 / cplxblur=20.0 / qblur=0.5 / vbv_maxrate=25000 /
vbv_bufsize=25000 / ip_ratio=1.40 / aq=1:1.00

Audio #1
ID                               : 2
Format                           : AC-3
Format/Info                      : Audio Coding 3
Codec ID                         : A_AC3
Duration                         : 1h 29mn
Bit rate mode                    : Constant
Bit rate                         : 640 Kbps
Channel(s)                       : 6 channels
Channel positions                : Front: L C R, Surround: L R, LFE
Sampling rate                    : 48.0 KHz
Video delay                      : 40ms
Stream size                      : 412 MiB (10%)
Language                         : Italian

Audio #2
ID                               : 3
Format                           : AC-3
Format/Info                      : Audio Coding 3
Codec ID                         : A_AC3
Duration                         : 1h 29mn
Bit rate mode                    : Constant
Bit rate                         : 640 Kbps
Channel(s)                       : 6 channels
Channel positions                : Front: L C R, Surround: L R, LFE
Sampling rate                    : 48.0 KHz
Stream size                      : 412 MiB (10%)
Language                         : English

Text #1
ID                               : 4
Format                           : UTF-8
Codec ID                         : S_TEXT/UTF8
Codec ID/Info                    : UTF-8 Plain Text
Title                            : Forced
Language                         : Italian

Text #2
ID                               : 5
Format                           : UTF-8
Codec ID                         : S_TEXT/UTF8
Codec ID/Info                    : UTF-8 Plain Text
Language                         : Italian

Menu
00:00:00.000                     : en:00:00:00.000
00:12:00.958                     : en:00:12:00.958
00:19:55.708                     : en:00:19:55.708
00:36:11.042                     : en:00:36:11.042
00:50:35.042                     : en:00:50:35.042
01:00:27.375                     : en:01:00:27.375
01:11:51.875                     : en:01:11:51.875
01:26:52.333                     : en:01:26:52.333
Info: Per scaricare devi usare un client come uTorrent, o Azureus
AnnounceURL
http://tracker.token.ro/announce
Hash 1629869630754319776502af7d1c03c74de8a198
Peers seeds: 10 , leech: 110
Size 4.18 GB
Completato 10x
Aggiunto 11.04.10 - 06:04:13
Uploader   ultimafrontiera
Votazione (Voti: 0)


Condividi questo bittorrent:


html/blog:


bbcode/forum:


Tramite bookmarks:



Aggiungi Commento