* Dettagli Torrent   globale  | Commenti (0) 


- Sherlock Holmes - Terrore di notte [XviD - Ita - Mp3] [Tntvillage] -


Download via torrent:
                 
Categoria bittorrent DVDrip
Descrizione
Sherlock Holmes - Terrore di notte [XviD - Ita - Mp3] [Tntvillage]


SHERLOCK HOLMES

TERRORE DI NOTTE

(TERROR BY NIGHT)


Visit this info link: Link









REGIA: Roy William Neill
SCENEGGIATURA: Frank Gruber
FOTOGRAFIA: Maury Gertsman
MUSICHE: Milton Rosen
PRODUZIONE: UNIVERSAL
PAESE: USA 1946
GENERE: Giallo, Thriller
DURATA: 60 Min
FORMATO: B/N
SOGGETTO: adattato da una storia di Arthur Conan Doyle





Basil Rathbone ... Sherlock Holmes
Nigel Bruce ... Dr. John H. Watson
Alan Mowbray ... Major Duncan-Bleek
Dennis Hoey ... Ispettore Lestrade
Renee Godfrey ... Sig.ra Vedder
Federico Worlock ... Prof. William Kilbane (come Worlock Frederic)
Mary Forbes ... Lady Margaret Carstairs
Skelton Knaggs ... Complice Moran-killer
Billy Bevan ... Passenger Car Supervisore Assunzione Tickets
Geoffrey Steele ... Roland - figlio della signora Carstairs
Gilbert Allen ... Dining Car Steward (non accreditato)
Harry Cording ... Mock La bara Maker (non accreditato)
Boyd Davis ... L\'ispettore MacDonald (non accreditato)
Gerald Hamer ... Alfred Shallcross - Thief Teapot (non accreditato)
Leyland Hodgson ... Train Conductor (non accreditato)
Colin Kenny ... Constable (non accreditato)
Charles Knight ... Guard (non accreditato)
Janet Murdoch ... La signora Shallcross (non accreditato)
Tom Pilkington ... Bagagli Auto Attendant (non accreditato)
Bobby Wissler ... Mock\'s Son (non accreditato)






Holmes e Watson durante un viaggio in treno conoscono un tale proprietario del famoso diamante la \"stella della Rhodesia\" (su cui pesa una maledizione, chiunque la possiede muore prematuramente). Difatti il proprietario muore davanti agli occhi di Holmes. Ma non per la maledizione. Solo per un volgare assassino che viaggia nel convoglio e che Holmes si incarica di smascherare.




Tra il 1942 e il 1946, la Universal produsse 12 film su Sherlock Holmes, destinati a divenire capisaldi imprescindibili dell\'iconografia legata al celebre investigatore.










General
Complete name                    : Sherlock Holmes - Terrore di notte.avi
Format                           : AVI
Format/Info                      : Audio Video Interleave
File size                        : 347 MiB
Duration                         : 57mn 53s
Overall bit rate                 : 837 Kbps

Video
ID                               : 0
Format                           : MPEG-4 Visual
Format profile                   : Advanced Simple@L5
Format settings, BVOP            : Yes
Format settings, QPel            : No
Format settings, GMC             : No warppoints
Format settings, Matrix          : Default (H.263)
Muxing mode                      : Packed bitstream
Codec ID                         : XVID
Codec ID/Hint                    : XviD
Duration                         : 57mn 53s
Bit rate                         : 700 Kbps
Width                            : 720 pixels
Height                           : 576 pixels
Display aspect ratio             : 5:4
Frame rate                       : 25.000 fps
Standard                         : PAL
Resolution                       : 8 bits
Colorimetry                      : 4:2:0
Scan type                        : Progressive
Bits/(Pixel*Frame)               : 0.068
Stream size                      : 290 MiB (84%)
Writing library                  : XviD 1.1.0 (UTC 2005-11-22)

Audio
ID                               : 1
Format                           : MPEG Audio
Format version                   : Version 1
Format profile                   : Layer 3
Codec ID                         : 55
Codec ID/Hint                    : MP3
Duration                         : 57mn 53s
Bit rate mode                    : Constant
Bit rate                         : 128 Kbps
Channel(s)                       : 2 channels
Sampling rate                    : 48.0 KHz
Video delay                      : 24ms
Stream size                      : 53.0 MiB (15%)
Alignment                        : Split accross interleaves
Interleave, duration             : 48 ms (1.20 video frame)



Visit http://www.tntvillage.scambioetico.org/
Info: Per scaricare devi usare un client come uTorrent, o Azureus
AnnounceURL
http://tracker.tntvillage.scambioetico.org:2710/announce
Hash 29b3f0603f851473db424beb42f44e388ca3b743
Peers seeds: 33 , leech: 10
Size 346.57 MB
Completato 596x
Aggiunto 11.04.10 - 09:04:12
Uploader   darayava
Votazione (Voti: 0)


Condividi questo bittorrent:


html/blog:


bbcode/forum:


Tramite bookmarks:



Aggiungi Commento