* Dettagli Torrent   globale  | Commenti (0) 


- Nip Tuck s04e11-12 [Mux - XviD - Ita Mp3] [Tntvillage] -


Download via torrent:
                 
Categoria bittorrent SerieTv
Descrizione
Nip Tuck s04e11-12 [Mux - XviD - Ita Mp3] [Tntvillage]



by Nova Rip - gc22

.: Dati Serie :.

Titolo originale: Nip/Tuck
Genere: Drammatico
Episodi: 15
Anno: 2007
Durata episodio: ~45  Minuti
Creatore: Ryan Murphy
Produzione: Ryan Murphy Production, The Shephard/Robin Company
Cast: Joely Richardson, Dylan Walsh, Roma Maffia, Julian McMahon, John Hensley

.: Trama :.

Due chirurgo-plastici in voga a Miami South Beach si trovano anche loro, in piena crisi di mezza età, a fare i conti con problemi di carriera, famiglia e amore. Sul lettino dei due dottori Sean McNamara e Christian Troy si sdraia l\'America che vuole darci un taglio! Dietro i desideri estetici dei pazienti, il più delle volte il bisturi fa emergere le loro insoddisfazioni, la fragile natura di chi è incapace di accettarsi, più che fisicamente, dal lato psicologico. Troy e McNamara sono amici dai tempi dell\'università, da quando dopo la laurea in Medicina hanno aperto lo studio più \"in\" di South Beach. Se il primo ha sviluppato una sorta di cinismo nell\'accettare i casi d\'intervento, anche alla luce degli alti guadagni che gli permettono una vita da playboy, il secondo si dimostra più vulnerabile, soprattutto quando torna a casa dalla famiglia. La moglie Julia ha sacrificato la propria vita a causa della carriera del marito. Anni di sacrifici che ora portano sull\'orlo del divorzio, con l\'idea di riprendere gli studi di medicina. Il figlio adolescente della coppia, Matt, si dimostra più in confidenza con Christian che con Sean...Così come Julia stessa, del resto. A completare il caste, si aggiunge la dottoressa Grace Santiago, la psicologa assunta per valutare i casi che bussano alla loro porta.


.: Episodio 11 - Conor McNamara, 2026 :.



È l\'anno 2026. Conor prova a riunire tutta la famiglia qualche giorno prima del suo intervento alla mano destra. Nel presente, il matrimonio fra Sean e Julia è di nuovo ad un bivio cruciale. Dopo aver scoperto le rispettive infedeltà, i due stanno per separarsi. Tutto accade mentre su Miami si abbatte un violento uragano.  


.: Episodio 12 - Diana Lubey :.



Sebbene in dubbio sul fatto se sia in grado di mantenere a lungo una relazione stabile, Christian chiede a Michelle di sposarlo. Sean decide di entrare in terapia ma sceglie la psicologa sbagliata. James richiede l\'utilizzo della clinica per i suoi personali interventi. Due donne si contendono le ceneri dello stesso defunto.
Con la partecipazione speciale di Catherine Deneuve.


.: Caratteristiche Tecniche :.

General
Complete name                    : Nip.Tuck.4x11.Conor.McNamara.2026.ITA.DVDMux.XviD-NovaRip.avi
Format                           : AVI
Format/Info                      : Audio Video Interleave
File size                        : 350 MiB
Duration                         : 42mn 1s
Overall bit rate                 : 1 163 Kbps
Writing application              : VirtualDubMod 1.5.10.2 (build 2540/release)
Writing library                  : VirtualDubMod build 2540/release

Video
ID                               : 0
Format                           : MPEG-4 Visual
Format profile                   : Advanced Simple@L5
Format settings, BVOP            : Yes
Format settings, QPel            : No
Format settings, GMC             : No warppoints
Format settings, Matrix          : Default (H.263)
Muxing mode                      : Packed bitstream
Codec ID                         : XVID
Codec ID/Hint                    : XviD
Duration                         : 42mn 1s
Bit rate                         : 1 026 Kbps
Width                            : 640 pixels
Height                           : 352 pixels
Display aspect ratio             : 16:9
Frame rate                       : 25.000 fps
Resolution                       : 8 bits
Colorimetry                      : 4:2:0
Scan type                        : Progressive
Bits/(Pixel*Frame)               : 0.182
Stream size                      : 308 MiB (88%)
Writing library                  : XviD 1.1.2 (UTC 2006-11-01)

Audio
ID                               : 1
Format                           : MPEG Audio
Format version                   : Version 1
Format profile                   : Layer 3
Format_Settings_Mode             : Joint stereo
Codec ID                         : 55
Codec ID/Hint                    : MP3
Duration                         : 42mn 1s
Bit rate mode                    : Constant
Bit rate                         : 128 Kbps
Channel(s)                       : 2 channels
Sampling rate                    : 48.0 KHz
Stream size                      : 38.5 MiB (11%)
Alignment                        : Aligned on interleaves
Interleave, duration             : 40 ms (1.00 video frame)
Interleave, preload duration     : 504 ms

Visit http://www.tntvillage.scambioetico.org/
Info: Per scaricare devi usare un client come uTorrent, o Azureus
AnnounceURL
http://tracker.tntvillage.scambioetico.org:2710/announce
Hash e6c86927d8aa477c244c28cb4532c86dd163d1b4
Peers seeds: 2 , leech: 4
Size 697.70 MB
Completato 231x
Aggiunto 11.04.10 - 10:04:26
Uploader   darayava
Votazione (Voti: 0)


Condividi questo bittorrent:


html/blog:


bbcode/forum:


Tramite bookmarks:



Aggiungi Commento