* Dettagli Torrent   globale  | Commenti (0) 


- Sherlock Holmes - Il mistero del carillon [XviD - Ita Mp3] [TNY] -


Download via torrent:
                 
Categoria bittorrent DVDrip
Descrizione
Sherlock Holmes - Il mistero del carillon [XviD - Ita Mp3] [Tntvillage]


SHERLOCK HOLMES

IL MISTERO DEL CARILLON

(DRESSED TO KILL)


Visit this info link: Link









REGIA: Roy William Neill
SCENEGGIATURA: Frank Gruber - Leonard Lee
FOTOGRAFIA: Maury Gertsman
MUSICHE: Milton Rosen
PRODUZIONE: UNIVERSAL
PAESE: USA 1946
GENERE: Giallo, Thriller
DURATA: 76 Min / 72 Min
FORMATO: B/N
SOGGETTO: adattato da una storia di Arthur Conan Doyle





Basil Rathbone ... Sherlock Holmes
Nigel Bruce ... Dr. John H. Watson
Patricia Morison ... Mrs. Hilda Courtney
Edmund Breon ... Julian \'Stinky\' Emery (con il nome Edmond Breon)
Frederick Worlock ... Colonel Cavanaugh (con il nome Frederic Worlock)
Carl Harbord ... Inspector Hopkins
Patricia Cameron ... Evelyn Clifford
Holmes Herbert ... Ebenezer Crabtree
Harry Cording ... Hamid
Leyland Hodgson ... Tour guide
Mary Gordon ... Mrs. Hudson
Ian Wolfe ... Commissioner of Scotland Yard






Sherlock Holmes si ritrova alle prese con la misteriosa morte di due individui, assassinati dopo aver acquistato dei carillon presso una casa d\'aste di Londra. Collegando gli omicidi con il furto di una serie di clichè della Banca d\'Inghilterra, Sherlock Holmes comincia a sospettare che il carillon contangano un codice segreto nascosto al loro interno. In una serratissima corsa contro il tempo, Holmes cerca di recuperare l\'ultima delle tre scatole e di decifrarne i segreti nascosti.




Episodio non brillantissimo del celebre duo (come sempre Rathbone fa Holmes, mentre Bruce fa Watson), per colpa di un soggetto che dà l’impressione di essere tirato per le lunghe per arrivare ad un metraggio decente, e che appassiona meno rispetto ad altri film della stessa serie.










General
Complete name                    : Sherlock Holmes - Il mistero del carillon.avi
Format                           : AVI
Format/Info                      : Audio Video Interleave
File size                        : 417 MiB
Duration                         : 1h 9mn
Overall bit rate                 : 837 Kbps

Video
ID                               : 0
Format                           : MPEG-4 Visual
Format profile                   : Advanced Simple@L5
Format settings, BVOP            : Yes
Format settings, QPel            : No
Format settings, GMC             : No warppoints
Format settings, Matrix          : Default (H.263)
Muxing mode                      : Packed bitstream
Codec ID                         : XVID
Codec ID/Hint                    : XviD
Duration                         : 1h 9mn
Bit rate                         : 700 Kbps
Width                            : 720 pixels
Height                           : 576 pixels
Display aspect ratio             : 5:4
Frame rate                       : 25.000 fps
Standard                         : PAL
Resolution                       : 8 bits
Colorimetry                      : 4:2:0
Scan type                        : Progressive
Bits/(Pixel*Frame)               : 0.068
Stream size                      : 348 MiB (84%)
Writing library                  : XviD 1.1.0 (UTC 2005-11-22)

Audio
ID                               : 1
Format                           : MPEG Audio
Format version                   : Version 1
Format profile                   : Layer 3
Codec ID                         : 55
Codec ID/Hint                    : MP3
Duration                         : 1h 9mn
Bit rate mode                    : Constant
Bit rate                         : 128 Kbps
Channel(s)                       : 2 channels
Sampling rate                    : 48.0 KHz
Video delay                      : 24ms
Stream size                      : 63.7 MiB (15%)
Alignment                        : Split accross interleaves
Interleave, duration             : 48 ms (1.20 video frame)


Visit http://www.tntvillage.scambioetico.org/
Info: Per scaricare devi usare un client come uTorrent, o Azureus
AnnounceURL
http://tracker.tntvillage.scambioetico.org:2710/announce
Hash 6104c0115b01f78983f330f9c675948192decbce
Peers seeds: 45 , leech: 17
Size 416.65 MB
Completato 630x
Aggiunto 12.04.10 - 10:04:09
Uploader   darayava
Votazione (Voti: 0)


Condividi questo bittorrent:


html/blog:


bbcode/forum:


Tramite bookmarks:



Aggiungi Commento