* Dettagli Torrent   globale  | Commenti (0) 


- Nip Tuck s04e13-15 [Mux - XviD - Ita Mp3] [Tntvillage] -


Download via torrent:
                 
Categoria bittorrent SerieTv
Descrizione
Nip Tuck s04e13-15 [Mux - XviD - Ita Mp3] [Tntvillage]



by Nova Rip - gc22

.: Dati Serie :.

Titolo originale: Nip/Tuck
Genere: Drammatico
Episodi: 15
Anno: 2007
Durata episodio: ~45  Minuti
Creatore: Ryan Murphy
Produzione: Ryan Murphy Production, The Shephard/Robin Company
Cast: Joely Richardson, Dylan Walsh, Roma Maffia, Julian McMahon, John Hensley

.: Trama :.

Due chirurgo-plastici in voga a Miami South Beach si trovano anche loro, in piena crisi di mezza età, a fare i conti con problemi di carriera, famiglia e amore. Sul lettino dei due dottori Sean McNamara e Christian Troy si sdraia l\'America che vuole darci un taglio! Dietro i desideri estetici dei pazienti, il più delle volte il bisturi fa emergere le loro insoddisfazioni, la fragile natura di chi è incapace di accettarsi, più che fisicamente, dal lato psicologico. Troy e McNamara sono amici dai tempi dell\'università, da quando dopo la laurea in Medicina hanno aperto lo studio più in di South Beach. Se il primo ha sviluppato una sorta di cinismo nell\'accettare i casi d\'intervento, anche alla luce degli alti guadagni che gli permettono una vita da playboy, il secondo si dimostra più vulnerabile, soprattutto quando torna a casa dalla famiglia. La moglie Julia ha sacrificato la propria vita a causa della carriera del marito. Anni di sacrifici che ora portano sull\'orlo del divorzio, con l\'idea di riprendere gli studi di medicina. Il figlio adolescente della coppia, Matt, si dimostra più in confidenza con Christian che con Sean...Così come Julia stessa, del resto. A completare il caste, si aggiunge la dottoressa Grace Santiago, la psicologa assunta per valutare i casi che bussano alla loro porta.


.: Episodio 13 - Reefer :.



Sean trascorre un deprimente Natale senza la sua famiglia. Christian riceve un inatteso regalo quando il piccolo Wilbur di 3 anni rientra nella sua vita. James fa pressione su Michelle e le ordina di aiutarla con l\'ultimo intervento su di un senzatetto amico di Sean, che le ha permesso di assicurarsi la sua quota reni prevista per il periodo delle vacanze. Sean decide di impersonare Babbo Natale.  


.: Episodio 14 - Willy Ward :.



Sean progetta di vendere la sua quota di proprietà della clinica. Gina non è felice di scoprire il ruolo di Michelle nella vita di Wilbur e medita battaglia. Matt prova a ravvivare il suo rapporto sessuale con Kimber. Poppy e Liz troncano la loro relazione. Il rapporto d\'affari fra James e Michelle ha finalmente termine quando quest\'ultima si toglie la vita. Ma il capo di James si rivela essere Escobar Gallardo.


.: Episodio 15 - Gala Gallardo :.



Sean vende la sua quota della clinica a Christian e Michelle. Escobar chiede ai due chirurghi di eseguire un intervento sulla moglie Gala. Al rifiuto dei due, l\'uomo obbliga Michelle a farlo. Christian scopre tutti i segreti che la sua futura consorte gli ha nascosto. Sean si trasferisce a Los Angeles, dove viene subito raggiunto da Christian che ha deciso di iniziare con il collega una nuova vita.


.: Caratteristiche Tecniche :.

General
Complete name                    : Nip.Tuck.4x13.Reefer.REPACK.ITA.DVDMux.XviD-NovaRip.avi
Format                           : AVI
Format/Info                      : Audio Video Interleave
File size                        : 349 MiB
Duration                         : 45mn 58s
Overall bit rate                 : 1 060 Kbps
Writing application              : VirtualDubMod 1.5.10.2 (build 2540/release)
Writing library                  : VirtualDubMod build 2540/release

Video
ID                               : 0
Format                           : MPEG-4 Visual
Format profile                   : Advanced Simple@L5
Format settings, BVOP            : Yes
Format settings, QPel            : No
Format settings, GMC             : No warppoints
Format settings, Matrix          : Default (H.263)
Muxing mode                      : Packed bitstream
Codec ID                         : XVID
Codec ID/Hint                    : XviD
Duration                         : 45mn 58s
Bit rate                         : 923 Kbps
Width                            : 640 pixels
Height                           : 352 pixels
Display aspect ratio             : 16:9
Frame rate                       : 25.000 fps
Resolution                       : 8 bits
Colorimetry                      : 4:2:0
Scan type                        : Progressive
Bits/(Pixel*Frame)               : 0.164
Stream size                      : 303 MiB (87%)
Writing library                  : XviD 1.1.2 (UTC 2006-11-01)

Audio
ID                               : 1
Format                           : MPEG Audio
Format version                   : Version 1
Format profile                   : Layer 3
Format_Settings_Mode             : Joint stereo
Codec ID                         : 55
Codec ID/Hint                    : MP3
Duration                         : 45mn 58s
Bit rate mode                    : Constant
Bit rate                         : 128 Kbps
Channel(s)                       : 2 channels
Sampling rate                    : 48.0 KHz
Stream size                      : 42.1 MiB (12%)
Alignment                        : Aligned on interleaves
Interleave, duration             : 40 ms (1.00 video frame)
Interleave, preload duration     : 504 ms

Visit http://www.tntvillage.scambioetico.org/
Info: Per scaricare devi usare un client come uTorrent, o Azureus
AnnounceURL
http://tracker.tntvillage.scambioetico.org:2710/announce
Hash 77fe1fbc46e9d7a2bc7b64d50a6db2f1a2dbe72f
Peers seeds: 1 , leech: 8
Size 1.02 GB
Completato 218x
Aggiunto 13.04.10 - 16:04:22
Uploader   darayava
Votazione (Voti: 0)


Condividi questo bittorrent:


html/blog:


bbcode/forum:


Tramite bookmarks:



Aggiungi Commento